<?xml version="1.0" encoding="UTF-8" standalone="no"?>
<!DOCTYPE svg PUBLIC "-//W3C//DTD SVG 1.1//EN" "http://www.w3.org/Graphics/SVG/1.1/DTD/svg11.dtd" >
<svg xmlns="http://www.w3.org/2000/svg">
<metadata>
Generated by SVGconv.
Copyright   : Copyright  1995 ParaGraph Intl.,  1998 ParaType Inc., ParaType Ltd. All rights reserved.
Designer    : Paul Renner,Vladimir Yefimov, Isabella Chaeva 
Foundry     : ParaType Ltd
Foundry URL : http://www.paratype.com
</metadata>
<defs>
<font id="FuturaPTWeb-Heavy" horiz-adv-x="575" >
<font-face units-per-em="1000" ascent="982" descent="300" >
<font-face-src>
<font-face-name/>
</font-face-src>
</font-face>
<missing-glyph horiz-adv-x="500" />
<glyph unicode="&#13;" horiz-adv-x="233" />
<glyph unicode="&#32;" horiz-adv-x="233" />
<glyph unicode="&#33;" horiz-adv-x="278" d="M65 215v452h148v-452zM48 75q0 38 26.5 64.5q26.5 26.5 64.5 26.5q38 0 64.5 -26.5q26.5 -26.5 26.5 -64.5q0 -38 -26.5 -64.5q-26.5 -26.5 -64.5 -26.5q-38 0 -64.5 26.5t-26.5 64.5z" />
<glyph unicode="&#34;" horiz-adv-x="407" d="M158 399h-93l-23 268h140zM342 399h-93l-24 268l140 0z" />
<glyph unicode="&#35;" horiz-adv-x="600" d="M573 295l-17 -111h-102l-30 -184h-128l30 184h-89l-30 -184h-128l30 184h-101l18 111h100l15 92h-100l17 110h100l28 170h128l-28 -170h89l28 170h128l-28 -170h101l-17 -110h-101l-15 -92zM358 387h-89l-15 -92l89 0z" />
<glyph unicode="&#36;" horiz-adv-x="600" d="M353 775v-101q11 -1 27.5 -3.5q16.5 -2.5 36.5 -9.5q20 -7 42.5 -19.5q22.5 -12.5 45.5 -31.5l-67 -107q-23 20 -50 33.5q-27 13.5 -59 13.5q-42 0 -63 -19q-8 -8 -14 -18.5q-6 -10.5 -6 -23.5q0 -23 19 -39q12 -11 29.5 -17.5q17.5 -6.5 37.5 -15.5l56 -24q26 -11 50 -24q24 -13 44 -33q25 -26 36 -56.5q11 -30.5 11 -66.5q0 -48 -15.5 -85.5q-15.5 -37.5 -39.5 -63.5q-22 -23 -52.5 -39.5q-30.5 -16.5 -68.5 -22.5l0 -114h-90v110q-30 2 -59 9q-29 7 -61 24q-26 14 -48 30.5q-22 16.5 -42 37.5l74 110q6 -6 23 -21.5q17 -15.5 42 -30.5q20 -12 42 -19.5q22 -7.5 51 -7.5q17 0 34.5 4q17.5 4 32.5 17q10 8 17 20.5q7 12.5 7 30.5q0 18 -8 31q-8 13 -22 23q-12 8 -27 13.5q-15 5.5 -42 16.5l-35 14q-26 11 -52 24.5q-26 13.5 -49 36.5q-23 24 -34 50q-11 26 -11 60q0 45 15.5 83.5q15.5 38.5 41.5 64.5q20 20 49 35q29 15 61 20l0 101z" />
<glyph unicode="&#37;" horiz-adv-x="830" d="M576 678l70 -15l-392 -677l-69 16zM205 595q-20 0 -34.5 -7q-14.5 -7 -22.5 -16q-10 -10 -16 -25q-6 -15 -6 -33q0 -18 6 -33q6 -15 16 -25q8 -9 22.5 -16q14.5 -7 34.5 -7q20 0 34.5 7q14.5 7 22.5 16q10 10 16 25q6 15 6 33q0 18 -6 33q-6 15 -16 25q-8 9 -22.5 16q-14.5 7 -34.5 7zt0 0zM380 514q0 -45 -15 -72q-15 -27 -28 -40q-23 -24 -57.5 -37q-34.5 -13 -74.5 -13q-40 0 -74.5 13q-34.5 13 -57.5 37q-13 13 -28 40q-15 27 -15 72q0 45 15 72q15 27 28 40q23 24 57.5 37q34.5 13 74.5 13q40 0 74.5 -13q34.5 -13 57.5 -37q13 -13 28 -40q15 -27 15 -72zt0 0zM625 234q-20 0 -34.5 -7q-14.5 -7 -22.5 -16q-10 -10 -16 -25q-6 -15 -6 -33q0 -18 6 -33q6 -15 16 -25q8 -9 22.5 -16q14.5 -7 34.5 -7q20 0 34.5 7q14.5 7 22.5 16q10 10 16 25q6 15 6 33q0 18 -6 33q-6 15 -16 25q-8 9 -22.5 16q-14.5 7 -34.5 7zt0 0zM800 153q0 -45 -15 -72q-15 -27 -28 -40q-23 -24 -57.5 -37q-34.5 -13 -74.5 -13q-40 0 -74.5 13q-34.5 13 -57.5 37q-13 13 -28 40q-15 27 -15 72q0 45 15 72q15 27 28 40q23 24 57.5 37q34.5 13 74.5 13q40 0 74.5 -13q34.5 -13 57.5 -37q13 -13 28 -40t15 -72z" />
<glyph unicode="&#38;" horiz-adv-x="744" d="M683 252q-42 -54 -89 -96l142 -156h-188l-60 65q-19 -19 -41 -35q-22 -16 -44 -25q-29 -12 -60.5 -16q-31.5 -4 -64.5 -4q-21 0 -42.5 1.5q-21.5 1.5 -43 6.5q-21.5 5 -43 16q-21.5 11 -40.5 29q-8 8 -18 20q-10 12 -18.5 29q-8.5 17 -14.5 39q-6 22 -6 50q0 42 13 74.5q13 32.5 39 58.5q20 21 48.5 37q28.5 16 59.5 25q-12 12 -25 28.5q-13 16.5 -21 30.5q-10 19 -14 38.5q-4 19.5 -4 39.5q0 43 14 72q14 29 33 48q22 21 57.5 37.5q35.5 16.5 89.5 16.5q51 0 88.5 -15.5q37.5 -15.5 60.5 -38.5q20 -20 33 -49.5q13 -29.5 13 -64.5q0 -29 -12 -60q-12 -31 -39 -57q-14 -14 -33 -26q-19 -12 -39 -20l97 -107q25 23 46 46.5q21 23.5 39 46.5zM287 291q-13 -7 -28.5 -17.5q-15.5 -10.5 -25.5 -21.5q-14 -16 -18.5 -31.5q-4.5 -15.5 -4.5 -28.5q0 -17 7 -30q7 -13 17 -22q25 -22 65 -22q33 0 59.5 15q26.5 15 43.5 29zM291 519q0 -14 4.5 -26q4.5 -12 12.5 -23q11 -17 24 -30q13 -13 14 -14q12 6 25.5 16q13.5 10 21.5 20q9 11 15 25q6 14 6 30q0 14 -4.5 24.5q-4.5 10.5 -12.5 18.5q-6 5 -17 10.5q-11 5.5 -28 5.5q-9 0 -20 -2.5q-11 -2.5 -22 -11.5q-10 -8 -14.5 -19.5t-4.5 -23.5z" />
<glyph unicode="&#39;" horiz-adv-x="224" d="M158 399h-93l-23 268l140 0z" />
<glyph unicode="&#40;" horiz-adv-x="335" d="M279 686q-23 -46 -38 -89q-15 -43 -26 -86q-16 -64 -21.5 -119q-5.5 -55 -5.5 -115q0 -63 6 -117q6 -54 21 -115q11 -43 26 -86q15 -43 38 -89l-97 -54q-21 38 -41.5 85.5q-20.5 47.5 -37.5 106.5q-20 67 -27.5 131q-7.5 64 -7.5 138q0 75 8 139.5q8 64.5 27 131.5q17 59 37.5 106.5q20.5 47.5 41.5 85.5z" />
<glyph unicode="&#41;" horiz-adv-x="335" d="M165 740q21 -38 41.5 -85.5q20.5 -47.5 37.5 -106.5q19 -67 27 -131.5q8 -64.5 8 -139.5q0 -74 -7.5 -138q-7.5 -64 -27.5 -131q-17 -59 -37.5 -106.5q-20.5 -47.5 -41.5 -85.5l-97 54q23 46 38 89q15 43 26 86q15 61 21 115q6 54 6 117q0 60 -5.5 115q-5.5 55 -21.5 119q-11 43 -26 86q-15 43 -38 89z" />
<glyph unicode="&#42;" horiz-adv-x="585" d="M251 615l-8 114h99l-9 -114l105 44l31 -93l-111 -26l73 -87l-78 -58l-61 97l-60 -97l-78 58l73 86l-111 26l31 94z" />
<glyph unicode="&#43;" horiz-adv-x="500" d="M33 398h154v154h126v-154h154v-116h-154v-155h-126v155l-154 0z" />
<glyph unicode="&#44;" horiz-adv-x="276" d="M100 154l131 -7l-151 -279l-90 4z" />
<glyph unicode="&#45;" horiz-adv-x="356" d="M50 316h256v-126l-256 0z" />
<glyph unicode="&#46;" horiz-adv-x="278" d="M48 75q0 38 26.5 64.5q26.5 26.5 64.5 26.5q38 0 64.5 -26.5q26.5 -26.5 26.5 -64.5q0 -38 -26.5 -64.5q-26.5 -26.5 -64.5 -26.5q-38 0 -64.5 26.5t-26.5 64.5z" />
<glyph unicode="&#47;" horiz-adv-x="700" d="M542 749l113 -20l-527 -933l-113 20z" />
<glyph unicode="&#48;" horiz-adv-x="600" d="M574 333q0 -86 -23.5 -158.5q-23.5 -72.5 -72.5 -120.5q-29 -29 -73 -49q-44 -20 -106 -20q-60 0 -103.5 20q-43.5 20 -73.5 49q-49 48 -72.5 120.5q-23.5 72.5 -23.5 158.5q0 87 23.5 159.5q23.5 72.5 72.5 120.5q30 29 73.5 49q43.5 20 103.5 20q62 0 106 -20q44 -20 73 -49q49 -48 72.5 -120.5q23.5 -72.5 23.5 -159.5zt0 0zM300 550q-20 0 -34 -6q-14 -6 -28 -19q-18 -18 -29 -43.5q-11 -25.5 -17 -52.5q-6 -27 -8 -52q-2 -25 -2 -43q0 -20 2 -45.5q2 -25.5 8 -52.5q6 -27 17 -52q11 -25 29 -42q14 -13 28 -19q14 -6 34 -6q20 0 34 6q14 6 28 19q18 17 29 42q11 25 17 52q6 27 8 52.5q2 25.5 2 45.5q0 18 -2 43q-2 25 -8 52q-6 27 -17 52.5q-11 25.5 -29 43.5q-14 13 -28 19t-34 6z" />
<glyph unicode="&#49;" horiz-adv-x="600" d="M231 537h-95v130h249v-667l-154 0z" />
<glyph unicode="&#50;" horiz-adv-x="600" d="M534 0h-510l200 218q13 15 29 33.5q16 18.5 31 37q15 18.5 28 36q13 17.5 21 29.5q6 9 13 21.5q7 12.5 13 27q6 14.5 10 31q4 16.5 4 33.5q0 19 -7 37q-7 18 -19 29q-21 19 -61 19q-22 0 -36.5 -6.5q-14.5 -6.5 -24.5 -17.5q-14 -15 -21 -38.5q-7 -23.5 -7 -43.5l-154 0q4 44 21 89.5q17 45.5 48 77.5q12 13 29 25q17 12 39.5 22q22.5 10 51 16q28.5 6 64.5 6q36 0 64.5 -6.5q28.5 -6.5 49.5 -16.5q21 -10 35.5 -20.5q14.5 -10.5 23.5 -19.5q27 -27 44.5 -67.5q17.5 -40.5 17.5 -92.5q0 -45 -13 -79q-13 -34 -37 -68q-22 -30 -48.5 -57q-26.5 -27 -58.5 -58l-70 -67l230 0z" />
<glyph unicode="&#51;" horiz-adv-x="600" d="M45 467q5 42 22.5 83q17.5 41 43.5 68q37 38 82 50.5q45 12.5 87 12.5q62 0 105.5 -16.5q43.5 -16.5 69.5 -42.5q21 -20 36 -53.5q15 -33.5 15 -82.5q0 -25 -5.5 -47q-5.5 -22 -21.5 -44q-11 -15 -23.5 -25q-12.5 -10 -26.5 -17q21 -8 41.5 -21.5q20.5 -13.5 34.5 -32.5q15 -20 23 -49q8 -29 8 -56q0 -38 -16 -79q-16 -41 -51 -73q-43 -39 -89 -48.5q-46 -9.5 -87 -9.5q-49 0 -100 12.5q-51 12.5 -95 56.5q-29 29 -49 71.5q-20 42.5 -25 93.5l154 0q2 -20 10 -40.5q8 -20.5 22 -34.5q12 -12 31 -19.5q19 -7.5 43 -7.5q20 0 37.5 6q17.5 6 29.5 17q12 11 19.5 29.5q7.5 18.5 7.5 38.5q0 21 -8.5 37.5q-8.5 16.5 -20.5 26.5q-18 14 -41.5 17.5q-23.5 3.5 -40.5 3.5h-12v106h9q7 0 28.5 2.5q21.5 2.5 38.5 16.5q11 9 18 24.5q7 15.5 7 35.5q0 17 -6 31q-6 14 -16 23q-9 8 -23.5 14q-14.5 6 -33.5 6q-20 0 -35 -6q-15 -6 -25 -16q-11 -11 -17 -28.5q-6 -17.5 -7 -33.5z" />
<glyph unicode="&#52;" horiz-adv-x="600" d="M493 248h80v-122h-80v-126h-148v126h-326v88l294 453h180zM345 248v259l-164 -259z" />
<glyph unicode="&#53;" horiz-adv-x="600" d="M493 537h-225l-18 -89q28 5 55 5q57 0 99.5 -18q42.5 -18 70.5 -47q23 -23 42 -62q19 -39 19 -99q0 -32 -6.5 -58.5q-6.5 -26.5 -16 -48q-9.5 -21.5 -21.5 -37.5q-12 -16 -24 -28q-46 -45 -98.5 -57.5q-52.5 -12.5 -103.5 -12.5q-24 0 -49.5 2.5q-25.5 2.5 -53.5 10q-28 7.5 -58 22q-30 14.5 -61 38.5l35 143q14 -15 31 -30q17 -15 33 -25q21 -14 46 -21.5q25 -7.5 55 -7.5q26 0 51.5 6.5q25.5 6.5 43.5 20.5q16 12 27.5 33.5q11.5 21.5 11.5 50.5q0 30 -11 48.5q-11 18.5 -23 29.5q-3 3 -11 8.5q-8 5.5 -21.5 11.5q-13.5 6 -33 10.5q-19.5 4.5 -45.5 4.5q-42 0 -76.5 -10.5q-34.5 -10.5 -59.5 -24.5l68 361l328 0z" />
<glyph unicode="&#54;" horiz-adv-x="600" d="M453 665l-176 -219q15 5 31.5 8q16.5 3 38.5 3q63 0 103 -20.5q40 -20.5 62 -43.5q9 -9 19 -23q10 -14 19 -33q9 -19 14.5 -43.5q5.5 -24.5 5.5 -54.5q0 -48 -15.5 -96q-15.5 -48 -47.5 -83q-23 -25 -49.5 -39.5q-26.5 -14.5 -53.5 -22.5q-27 -8 -53.5 -10.5q-26.5 -2.5 -48.5 -2.5q-23 0 -50.5 2q-27.5 2 -56 10q-28.5 8 -56.5 23.5q-28 15.5 -53 42.5q-33 35 -45.5 76q-12.5 41 -12.5 86q0 40 8.5 74.5q8.5 34.5 23.5 65.5q15 31 34.5 59.5q19.5 28.5 40.5 56.5l153 201zM297 111q30 0 49.5 10q19.5 10 30.5 20q14 13 24.5 34.5q10.5 21.5 10.5 53.5q0 29 -10.5 49q-10.5 20 -24.5 33q-19 17 -39.5 22.5q-20.5 5.5 -40.5 5.5q-23 0 -43.5 -6q-20.5 -6 -37.5 -23q-10 -9 -22 -29.5q-12 -20.5 -12 -55.5q0 -23 7.5 -44.5q7.5 -21.5 26.5 -38.5q14 -14 34.5 -22.5t46.5 -8.5z" />
<glyph unicode="&#55;" horiz-adv-x="600" d="M352 537h-294v130h530l-395 -682l-143 35z" />
<glyph unicode="&#56;" horiz-adv-x="600" d="M299 -15q-23 0 -45.5 1.5q-22.5 1.5 -45.5 7q-23 5.5 -46 16.5q-23 11 -45 31q-38 35 -51 73.5q-13 38.5 -13 71.5q0 43 15 70.5q15 27.5 30 43.5q17 17 39 30q22 13 44 20q-13 5 -29 14.5q-16 9.5 -32 26.5q-23 23 -32 49q-9 26 -9 57q0 42 14 72.5q14 30.5 35 51.5q37 38 82.5 49.5q45.5 11.5 90.5 11.5q44 0 89 -11.5q45 -11.5 82 -49.5q21 -21 35 -51.5q14 -30.5 14 -72.5q0 -31 -9 -57q-9 -26 -32 -49q-16 -17 -32 -26.5q-16 -9.5 -29 -14.5q22 -7 44 -20q22 -13 39 -30q15 -16 30 -43.5q15 -27.5 15 -70.5q0 -33 -13 -71.5q-13 -38.5 -51 -73.5q-22 -20 -44.5 -31q-22.5 -11 -46 -16.5q-23.5 -5.5 -46.5 -7q-23 -1.5 -47 -1.5zt0 0zM300 568q-16 0 -30.5 -5q-14.5 -5 -28.5 -17q-25 -24 -25 -57q0 -21 8 -35q8 -14 17 -22q11 -10 26 -16q15 -6 33 -6q16 0 30.5 5q14.5 5 27.5 17q25 24 25 57q0 25 -10 39q-10 14 -15 19q-11 9 -25.5 15q-14.5 6 -32.5 6zt0 0zM298 288q-20 0 -36 -6.5q-16 -6.5 -27 -17.5q-12 -12 -19 -30.5q-7 -18.5 -7 -35.5q0 -18 6 -36q6 -18 20 -31q13 -12 30.5 -18q17.5 -6 34.5 -6q17 0 34.5 6q17.5 6 30.5 18q11 11 18.5 28.5q7.5 17.5 7.5 39.5q0 21 -7.5 37.5q-7.5 16.5 -18.5 27.5q-12 12 -29.5 18t-37.5 6z" />
<glyph unicode="&#57;" horiz-adv-x="600" d="M145 2l176 218q-33 -10 -67 -10q-54 0 -97 17q-43 17 -71 45q-27 27 -42.5 67q-15.5 40 -15.5 94q0 37 7.5 66q7.5 29 17.5 50.5q10 21.5 21 35.5q11 14 19 22q24 25 52.5 40q28.5 15 56.5 23q28 8 54 10q26 2 46 2q39 0 70.5 -6q31.5 -6 56 -15.5q24.5 -9.5 42.5 -21.5q18 -12 31 -24q25 -23 46.5 -65q21.5 -42 21.5 -104q0 -32 -7.5 -67q-7.5 -35 -22.5 -69q-13 -28 -34 -60.5q-21 -32.5 -44 -63.5l-152 -201zM301 556q-48 0 -80 -30q-10 -9 -22.5 -29q-12.5 -20 -12.5 -55q0 -32 10 -52.5q10 -20.5 24 -33.5q16 -14 37 -21q21 -7 44 -7q26 0 46.5 8q20.5 8 34.5 21q12 11 23 32q11 21 11 56q0 48 -34 81q-12 11 -32 20.5t-49 9.5z" />
<glyph unicode="&#58;" horiz-adv-x="278" d="M48 76q0 38 26.5 64.5q26.5 26.5 64.5 26.5q38 0 64.5 -26.5q26.5 -26.5 26.5 -64.5q0 -38 -26.5 -64.5q-26.5 -26.5 -64.5 -26.5q-38 0 -64.5 26.5q-26.5 26.5 -26.5 64.5zt0 0zM48 370q0 38 26.5 64.5q26.5 26.5 64.5 26.5q38 0 64.5 -26.5q26.5 -26.5 26.5 -64.5q0 -38 -26.5 -64.5q-26.5 -26.5 -64.5 -26.5q-38 0 -64.5 26.5t-26.5 64.5z" />
<glyph unicode="&#59;" horiz-adv-x="300" d="M100 154l131 -7l-151 -279l-90 4zM70 370q0 38 26.5 64.5q26.5 26.5 64.5 26.5q38 0 64.5 -26.5q26.5 -26.5 26.5 -64.5q0 -38 -26.5 -64.5q-26.5 -26.5 -64.5 -26.5q-38 0 -64.5 26.5t-26.5 64.5z" />
<glyph unicode="&#60;" horiz-adv-x="500" d="M467 607v-124l-301 -149l301 -149v-124l-434 219l0 108z" />
<glyph unicode="&#61;" horiz-adv-x="500" d="M33 481h434v-110h-434zM33 309h434v-110l-434 0z" />
<glyph unicode="&#62;" horiz-adv-x="500" d="M467 280l-434 -219v124l301 149l-301 149v124l434 -219z" />
<glyph unicode="&#63;" horiz-adv-x="525" d="M173 214v184q33 -8 69 -3.5q36 4.5 59 24.5q14 12 22 30q8 18 8 39q0 30 -19 51q-11 12 -24 15.5q-13 3.5 -24 3.5q-20 0 -32 -6q-12 -6 -19 -13q-8 -9 -13 -25q-5 -16 -4 -31l-154 0q1 46 17.5 81q16.5 35 37.5 57q9 10 23.5 20.5q14.5 10.5 34.5 19.5q20 9 46.5 15q26.5 6 60.5 6q59 0 99 -17.5q40 -17.5 66 -42.5q30 -29 43 -65.5q13 -36.5 13 -72.5q0 -42 -15 -73.5q-15 -31.5 -35 -53.5q-15 -17 -43 -35q-28 -18 -71 -24l0 -84zM159 76q0 38 26.5 64.5q26.5 26.5 64.5 26.5q38 0 64.5 -26.5q26.5 -26.5 26.5 -64.5q0 -38 -26.5 -64.5q-26.5 -26.5 -64.5 -26.5q-38 0 -64.5 26.5t-26.5 64.5z" />
<glyph unicode="&#64;" horiz-adv-x="734" d="M476 487h84l-40 -203q-2 -6 -3 -16.5q-1 -10.5 -1 -17.5q0 -7 2 -15q2 -8 7 -13q6 -6 17 -6q8 0 16.5 4.5q8.5 4.5 15.5 10.5q13 12 23 30q10 18 17 38q7 20 10 40q3 20 3 36q0 48 -16.5 87.5q-16.5 39.5 -41.5 65.5q-29 30 -76 50q-47 20 -106 20q-61 0 -110.5 -22q-49.5 -22 -82.5 -56q-39 -40 -59 -93q-20 -53 -20 -105q0 -59 23 -112q23 -53 63 -89q23 -21 47.5 -33q24.5 -12 49.5 -19q25 -7 49 -9q24 -2 47 -2q60 0 105.5 11q45.5 11 74.5 22l19 -76q-54 -19 -102.5 -25.5q-48.5 -6.5 -93.5 -6.5q-35 0 -71 4q-36 4 -70.5 15q-34.5 11 -67.5 30.5q-33 19.5 -62 49.5q-46 48 -69.5 113q-23.5 65 -23.5 131q0 87 30 148.5q30 61.5 71 101.5q54 53 118 75q64 22 136 22q26 0 55 -3.5q29 -3.5 59 -13q30 -9.5 59.5 -26q29.5 -16.5 56.5 -43.5q38 -37 60.5 -87q22.5 -50 22.5 -119q0 -58 -19 -109.5q-19 -51.5 -53 -83.5q-29 -28 -54.5 -34q-25.5 -6 -38.5 -6q-32 0 -54 19q-11 9 -16 19q-5 10 -7 18q-15 -23 -32.5 -36q-17.5 -13 -35 -19q-17.5 -6 -32 -7.5q-14.5 -1.5 -22.5 -1.5q-61 0 -100 40q-26 26 -34 55.5q-8 29.5 -8 61.5q0 37 11 75.5q11 38.5 44 73.5q28 29 59 40q31 11 60 11q25 0 42.5 -6.5q17.5 -6.5 29 -15q11.5 -8.5 18 -17q6.5 -8.5 9.5 -13.5zM358 225q14 0 27.5 5q13.5 5 26.5 18q17 17 25.5 40q8.5 23 8.5 46q0 21 -6 36.5q-6 15.5 -16 24.5q-11 10 -22.5 12.5q-11.5 2.5 -20.5 2.5q-33 0 -56 -23q-17 -17 -26 -40q-9 -23 -9 -46q0 -20 6 -34.5q6 -14.5 15 -23.5q18 -18 47 -18z" />
<glyph unicode="&#65;" horiz-adv-x="677" d="M465 126h-252l-51 -126h-160l269 667h141l263 -667h-160zM423 244l-82 224l-83 -224z" />
<glyph unicode="&#66;" horiz-adv-x="594" d="M277 667q13 0 34 -1q21 -1 45 -6q24 -5 47.5 -15.5q23.5 -10.5 43.5 -28.5q16 -15 25.5 -32.5q9.5 -17.5 14.5 -35q5 -17.5 6.5 -32.5q1.5 -15 1.5 -26q0 -20 -4 -41.5q-4 -21.5 -18 -43.5q-13 -21 -28.5 -32.5q-15.5 -11.5 -27.5 -16.5q24 -4 49 -15.5q25 -11.5 43 -29.5q17 -17 30 -45.5q13 -28.5 13 -73.5q0 -51 -16 -83q-16 -32 -36 -52q-21 -20 -45 -31.5q-24 -11.5 -48 -17q-24 -5.5 -46 -7q-22 -1.5 -37 -1.5h-251v667zM225 396h25q16 0 38.5 3.5q22.5 3.5 39.5 15.5q11 8 19 22.5q8 14.5 8 36.5q0 22 -8.5 35.5q-8.5 13.5 -17.5 20.5q-17 13 -38 15q-21 2 -42 2h-24zM225 120h37q29 0 61 3.5q32 3.5 53 23.5q22 20 22 56q0 20 -6.5 33.5q-6.5 13.5 -14.5 20.5q-10 9 -24 14.5q-14 5.5 -29.5 7.5q-15.5 2 -30 2.5q-14.5 0.5 -26.5 0.5l-42 0z" />
<glyph unicode="&#67;" horiz-adv-x="605" d="M555 21q-45 -23 -81 -29.5q-36 -6.5 -66 -6.5q-92 0 -156 28q-64 28 -106 69q-45 44 -74.5 108q-29.5 64 -29.5 145q0 79 29.5 143q29.5 64 74.5 108q45 43 108 69.5q63 26.5 141 26.5q33 0 72 -8q39 -8 88 -29l0 -178q-26 27 -64 49q-38 22 -92 22q-82 0 -136 -52q-28 -27 -45.5 -66.5q-17.5 -39.5 -17.5 -87.5q0 -52 17.5 -88.5q17.5 -36.5 40.5 -58.5q5 -5 16.5 -14.5q11.5 -9.5 29.5 -18.5q18 -9 42.5 -16q24.5 -7 55.5 -7q15 0 32.5 2.5q17.5 2.5 37 10q19.5 7.5 40.5 21q21 13.5 43 35.5z" />
<glyph unicode="&#68;" horiz-adv-x="685" d="M284 667q33 0 66.5 -3.5q33.5 -3.5 67 -13q33.5 -9.5 66 -27.5q32.5 -18 63.5 -48q45 -43 70.5 -102q25.5 -59 25.5 -137q0 -79 -24.5 -136.5q-24.5 -57.5 -66.5 -99.5q-35 -35 -72.5 -55q-37.5 -20 -72.5 -30q-35 -10 -66 -12.5q-31 -2.5 -52 -2.5h-216v667zM227 130h41q12 0 30 1q18 1 39 5.5q21 4.5 42.5 13.5q21.5 9 40.5 25q27 23 46 64q19 41 19 97q0 54 -17.5 89q-17.5 35 -37.5 55q-19 19 -40 30q-21 11 -42 17q-21 6 -41.5 8q-20.5 2 -38.5 2l-41 0z" />
<glyph unicode="&#69;" horiz-adv-x="502" d="M450 537h-223v-129h212v-130h-212v-148h223v-130h-377v667l377 0z" />
<glyph unicode="&#70;" horiz-adv-x="483" d="M443 537h-216v-129h200v-130h-200v-278h-154v667l370 0z" />
<glyph unicode="&#71;" horiz-adv-x="767" d="M394 364h331v-7q0 -30 -5.5 -67q-5.5 -37 -18 -75q-12.5 -38 -32 -74q-19.5 -36 -47.5 -65q-28 -29 -57.5 -47q-29.5 -18 -59.5 -27.5q-30 -9.5 -60.5 -13q-30.5 -3.5 -60.5 -3.5q-30 0 -61 3.5q-31 3.5 -62 13q-31 9.5 -61.5 28q-30.5 18.5 -59.5 48.5q-15 15 -32 38q-17 23 -31.5 54.5q-14.5 31.5 -24.5 71.5q-10 40 -10 90q0 82 27 146q27 64 69 107q31 32 64.5 51q33.5 19 67.5 29.5q34 10.5 67 13.5q33 3 63 3q42 0 91 -9.5q49 -9.5 96 -40.5q34 -23 62 -55q28 -32 46 -64l-139 -75q-10 20 -24.5 39q-14.5 19 -34.5 33q-44 32 -102 32q-46 0 -80 -14q-34 -14 -58 -40q-28 -29 -42.5 -70q-14.5 -41 -14.5 -88q0 -57 17.5 -94.5q17.5 -37.5 38.5 -58.5q29 -30 63 -41q34 -11 72 -11q50 0 77.5 13q27.5 13 38.5 23q4 3 21 22.5q17 19.5 27 56.5l-161 0z" />
<glyph unicode="&#72;" horiz-adv-x="720" d="M227 413h266v254h154v-667h-154v283h-266v-283h-154v667l154 0z" />
<glyph unicode="&#73;" horiz-adv-x="306" d="M230 667v-667h-154l0 667z" />
<glyph unicode="&#74;" horiz-adv-x="415" d="M342 667v-454q0 -19 -1.5 -41.5q-1.5 -22.5 -7 -46q-5.5 -23.5 -17 -47q-11.5 -23.5 -32.5 -43.5q-33 -33 -71 -41.5q-38 -8.5 -70 -8.5q-27 0 -53.5 4q-26.5 4 -52.5 20q-16 10 -33 25q-17 15 -30 31l96 108q5 -9 11.5 -20q6.5 -11 12.5 -17q15 -15 38 -15q10 0 19 3q9 3 17 11q14 14 17 36q3 22 3 43l0 453z" />
<glyph unicode="&#75;" horiz-adv-x="670" d="M227 389l228 278h188l-270 -316l291 -351h-198l-239 296v-296h-154v667l154 0z" />
<glyph unicode="&#76;" horiz-adv-x="448" d="M227 667v-537h207v-130h-361l0 667z" />
<glyph unicode="&#77;" horiz-adv-x="886" d="M42 0l107 667h128l166 -399l166 399h128l107 -667h-154l-53 398l-167 -398h-54l-167 398l-53 -398z" />
<glyph unicode="&#78;" horiz-adv-x="796" d="M73 0v667h134l362 -430v430h154v-667h-134l-362 432l0 -432z" />
<glyph unicode="&#79;" horiz-adv-x="810" d="M406 682q158 0 258 -97q48 -46 76 -110q28 -64 28 -142q0 -67 -25 -132q-25 -65 -79 -118q-47 -45 -110 -71.5q-63 -26.5 -148 -26.5q-47 0 -86.5 8.5q-39.5 8.5 -71.5 22.5q-32 14 -57.5 31.5q-25.5 17.5 -44.5 35.5q-48 45 -76 109.5q-28 64.5 -28 138.5q0 36 7.5 71.5q7.5 35.5 21.5 68.5q14 33 32.5 61.5q18.5 28.5 41.5 51.5q17 17 41 34.5q24 17.5 56.5 31.5q32.5 14 73 23q40.5 9 90.5 9zt0 0zM405 540q-44 0 -81.5 -15q-37.5 -15 -64.5 -42q-22 -21 -40.5 -58q-18.5 -37 -18.5 -93q0 -90 61 -150q32 -31 68 -43q36 -12 75 -12q51 0 87.5 16.5q36.5 16.5 60.5 40.5q20 19 39 55q19 36 19 94q0 52 -17.5 89.5q-17.5 37.5 -40.5 60.5q-25 24 -63 40.5t-84 16.5z" />
<glyph unicode="&#80;" horiz-adv-x="572" d="M308 667q44 0 89.5 -10q45.5 -10 85.5 -45q21 -19 34 -40q13 -21 20 -42.5q7 -21.5 9 -42q2 -20.5 2 -37.5q0 -63 -19 -100q-19 -37 -38 -57q-20 -20 -42.5 -32q-22.5 -12 -45 -18q-22.5 -6 -43.5 -7.5q-21 -1.5 -39 -1.5h-94v-234h-154v667zM227 360h55q16 0 40 3.5q24 3.5 43 21.5q11 11 18 27.5q7 16.5 7 38.5q0 21 -7 37.5q-7 16.5 -18 27.5q-17 17 -40 21q-23 4 -46 4l-52 0z" />
<glyph unicode="&#81;" horiz-adv-x="813" d="M579 37q-12 -9 -28.5 -18.5q-16.5 -9.5 -39 -17q-22.5 -7.5 -52 -12q-29.5 -4.5 -67.5 -4.5q-78 0 -137 23.5q-59 23.5 -108 71.5q-58 57 -81.5 124q-23.5 67 -23.5 130q0 75 28.5 139.5q28.5 64.5 72.5 108.5q43 43 108.5 71.5q65.5 28.5 152.5 28.5q78 0 144 -25.5q66 -25.5 114 -70.5q46 -43 75 -107q29 -64 29 -147q0 -38 -7.5 -69q-7.5 -31 -20.5 -60q-13 -29 -29 -51q-16 -22 -36 -39l116 -126l-145 -18zM569 214q19 26 29 54q10 28 10 66q0 54 -18 90q-18 36 -39 57q-29 29 -67 44q-38 15 -80 15q-47 0 -84.5 -17q-37.5 -17 -61.5 -42q-29 -29 -43.5 -70q-14.5 -41 -14.5 -80q0 -41 14 -78.5q14 -37.5 42 -66.5q25 -26 60 -42.5q35 -16.5 84 -16.5q43 0 80 17l-120 118l149 16z" />
<glyph unicode="&#82;" horiz-adv-x="607" d="M307 667q64 0 105 -17.5q41 -17.5 65 -40.5q21 -20 39.5 -56.5q18.5 -36.5 18.5 -92.5q0 -32 -10 -68q-10 -36 -42 -68q-17 -17 -41 -30.5q-24 -13.5 -52 -20.5l205 -273h-188l-180 263v-263h-154v667zM227 364h35q21 0 46.5 4.5q25.5 4.5 45.5 24.5q8 8 16.5 24q8.5 16 8.5 41q0 29 -10.5 44.5q-10.5 15.5 -20.5 23.5q-19 14 -44.5 17.5q-25.5 3.5 -40.5 3.5l-36 0z" />
<glyph unicode="&#83;" horiz-adv-x="550" d="M417 504q-19 17 -36 26.5q-17 9.5 -31.5 14.5q-14.5 5 -26 6q-11.5 1 -18.5 1q-16 0 -33.5 -4q-17.5 -4 -31.5 -19q-8 -8 -12.5 -18.5q-4.5 -10.5 -4.5 -23.5q0 -24 15 -37q12 -11 31 -18q19 -7 53 -20l50 -19q22 -8 46.5 -20q24.5 -12 44.5 -31q29 -28 39 -61.5q10 -33.5 10 -62.5q0 -52 -16.5 -95q-16.5 -43 -42.5 -70q-22 -23 -48 -36.5q-26 -13.5 -52 -20.5q-26 -7 -49.5 -9q-23.5 -2 -39.5 -2q-36 0 -68 6q-32 6 -64 22q-26 13 -52.5 33.5q-26.5 20.5 -45.5 39.5l80 110q13 -13 30.5 -28q17.5 -15 31.5 -23q39 -24 84 -24q15 0 34 4.5q19 4.5 36 18.5q10 8 17 21.5q7 13.5 7 32.5q0 17 -6 28q-6 11 -17 20q-7 6 -17 11.5q-10 5.5 -21.5 10q-11.5 4.5 -22 8.5q-10.5 4 -17.5 7l-55 19q-23 8 -48 20q-25 12 -45 33q-26 28 -33 60q-7 32 -7 56q0 45 14 82q14 37 44 68q35 36 76.5 48.5q41.5 12.5 88.5 12.5q17 0 39 -2q22 -2 47.5 -9q25.5 -7 54 -20q28.5 -13 57.5 -35z" />
<glyph unicode="&#84;" horiz-adv-x="460" d="M307 537v-537h-154v537h-145v130h444l0 -130z" />
<glyph unicode="&#85;" horiz-adv-x="710" d="M637 272q0 -24 -2.5 -50.5q-2.5 -26.5 -10 -53.5q-7.5 -27 -22 -54.5q-14.5 -27.5 -39.5 -52.5q-24 -25 -49.5 -40q-25.5 -15 -52 -23q-26.5 -8 -53.5 -10.5q-27 -2.5 -53 -2.5q-26 0 -53 2.5q-27 2.5 -53.5 10.5q-26.5 8 -52 23q-25.5 15 -49.5 40q-25 25 -39.5 52.5q-14.5 27.5 -22 54.5q-7.5 27 -10 53.5q-2.5 26.5 -2.5 50.5v395h154v-391q0 -22 5 -54q5 -32 30 -58q20 -22 45.5 -28.5q25.5 -6.5 47.5 -6.5q22 0 47.5 6.5q25.5 6.5 45.5 28.5q25 26 30 58q5 32 5 54v391l154 0z" />
<glyph unicode="&#86;" horiz-adv-x="678" d="M170 667l169 -427l169 427h166l-283 -667h-104l-283 667z" />
<glyph unicode="&#87;" horiz-adv-x="1002" d="M164 667l142 -442l142 442h106l142 -442l142 442h160l-227 -667h-130l-140 405l-140 -405h-130l-227 667z" />
<glyph unicode="&#88;" horiz-adv-x="686" d="M255 354l-207 313h185l110 -190l110 190h185l-207 -313l245 -354h-185l-148 231l-148 -231l-185 0z" />
<glyph unicode="&#89;" horiz-adv-x="632" d="M239 311l-239 356h182l134 -207l134 207h182l-239 -356v-311l-154 0z" />
<glyph unicode="&#90;" horiz-adv-x="616" d="M275 130h286v-130h-539l320 537h-268v130l520 0z" />
<glyph unicode="&#91;" horiz-adv-x="354" d="M212 631v-717h92v-98h-214v913h214l0 -98z" />
<glyph unicode="&#92;" horiz-adv-x="700" d="M572 -204l-527 933l113 20l527 -933z" />
<glyph unicode="&#93;" horiz-adv-x="354" d="M50 729h214v-913h-214v98h92v717l-92 0z" />
<glyph unicode="&#94;" horiz-adv-x="500" d="M138 333h-132l161 334h165l161 -334h-132l-112 237z" />
<glyph unicode="&#95;" horiz-adv-x="500" d="M0 -66h500v-118l-500 0z" />
<glyph unicode="&#96;" horiz-adv-x="500" d="M88 650l95 65l122 -152l-65 -48z" />
<glyph unicode="&#97;" horiz-adv-x="598" d="M398 446h144v-446h-144v54q-15 -23 -32 -36.5q-17 -13.5 -34.5 -20.5q-17.5 -7 -34.5 -9.5q-17 -2.5 -31 -2.5q-48 0 -89 14.5q-41 14.5 -78 53.5q-35 38 -50 80q-15 42 -15 87q0 57 19 103q19 46 50 77q29 29 68.5 45q39.5 16 86.5 16q14 0 32 -2.5q18 -2.5 37 -9q19 -6.5 37.5 -19.5q18.5 -13 33.5 -34zM294 337q-23 0 -44 -9q-21 -9 -35 -23q-11 -11 -22 -31q-11 -20 -11 -50q0 -30 10 -49.5q10 -19.5 20 -30.5q15 -16 37 -25.5q22 -9.5 48 -9.5q22 0 41.5 8.5q19.5 8.5 33.5 22.5q14 14 24.5 34.5q10.5 20.5 10.5 49.5q0 24 -8.5 45.5q-8.5 21.5 -24.5 36.5q-17 16 -38.5 23.5t-41.5 7.5z" />
<glyph unicode="&#98;" horiz-adv-x="602" d="M204 729v-333q27 37 64.5 51q37.5 14 74.5 14q46 0 86 -16q40 -16 69 -44q32 -31 51 -75.5q19 -44.5 19 -100.5q0 -52 -17.5 -98q-17.5 -46 -52.5 -81q-29 -30 -66 -45.5q-37 -15.5 -87 -15.5q-30 0 -52.5 6.5q-22.5 6.5 -39.5 16q-17 9.5 -29 22q-12 12.5 -20 24.5l0 -54h-144v729zM308 337q-23 0 -43.5 -7.5q-20.5 -7.5 -37.5 -25.5q-13 -14 -22.5 -33.5q-9.5 -19.5 -9.5 -48.5q0 -28 10 -48q10 -20 23 -32q17 -17 39.5 -25q22.5 -8 42.5 -8q19 0 38.5 7.5q19.5 7.5 36.5 23.5q16 15 25.5 36q9.5 21 9.5 46q0 27 -9.5 48.5q-9.5 21.5 -25.5 36.5q-17 17 -36 23.5t-41 6.5z" />
<glyph unicode="&#99;" horiz-adv-x="431" d="M391 305q-26 22 -51.5 28q-25.5 6 -42.5 6q-34 0 -54 -12q-20 -12 -28 -20q-14 -14 -23.5 -35.5q-9.5 -21.5 -9.5 -48.5q0 -25 8 -45.5q8 -20.5 22 -34.5q17 -18 40 -27q23 -9 47 -9q19 0 43 7q24 7 49 28l0 -130q-29 -16 -56.5 -21.5q-27.5 -5.5 -57.5 -5.5q-57 0 -99.5 18.5q-42.5 18.5 -73.5 48.5q-26 25 -48 67q-22 42 -22 103q0 57 21 101.5q21 44.5 53 74.5q38 35 81 49q43 14 89 14q29 0 56.5 -5.5q27.5 -5.5 56.5 -19.5z" />
<glyph unicode="&#100;" horiz-adv-x="602" d="M542 0h-144v54q-8 -12 -20 -24.5q-12 -12.5 -29 -22q-17 -9.5 -39.5 -16q-22.5 -6.5 -52.5 -6.5q-50 0 -87 15.5q-37 15.5 -66 45.5q-35 35 -52.5 81q-17.5 46 -17.5 98q0 56 19 100.5q19 44.5 51 75.5q29 28 69 44q40 16 86 16q37 0 74.5 -14q37.5 -14 64.5 -51l0 333h144zM294 337q-22 0 -41 -6.5q-19 -6.5 -36 -23.5q-16 -15 -25.5 -36.5q-9.5 -21.5 -9.5 -48.5q0 -25 9.5 -46q9.5 -21 25.5 -36q17 -16 36.5 -23.5q19.5 -7.5 38.5 -7.5q20 0 42.5 8q22.5 8 39.5 25q13 12 23 32q10 20 10 48q0 29 -9.5 48.5q-9.5 19.5 -22.5 33.5q-17 18 -37.5 25.5t-43.5 7.5z" />
<glyph unicode="&#101;" horiz-adv-x="547" d="M380 284q-1 3 -7 20q-6 17 -22 32q-12 11 -29 18q-17 7 -39 7q-28 0 -45 -9q-17 -9 -28 -20q-8 -9 -15 -21q-7 -12 -10 -27zM513 198h-333q0 -18 6.5 -39.5q6.5 -21.5 20.5 -36.5q17 -18 37 -23q20 -5 37 -5q16 0 31.5 3q15.5 3 26.5 10q2 1 12 9.5q10 8.5 19 27.5l136 -14q-8 -24 -18.5 -42q-10.5 -18 -22.5 -31.5q-12 -13.5 -23.5 -23q-11.5 -9.5 -21.5 -15.5q-32 -20 -67.5 -26.5q-35.5 -6.5 -73.5 -6.5q-51 0 -95 12.5q-44 12.5 -83 51.5q-29 29 -48 72.5q-19 43.5 -19 99.5q0 48 17 94.5q17 46.5 51 81.5q20 20 42.5 32.5q22.5 12.5 44.5 19.5q22 7 43.5 9.5q21.5 2.5 40.5 2.5q19 0 41 -2.5q22 -2.5 45.5 -9.5q23.5 -7 46.5 -20q23 -13 44 -35q20 -21 32.5 -44q12.5 -23 19 -46.5q6.5 -23.5 9 -46.5q2.5 -23 2.5 -44z" />
<glyph unicode="&#102;" horiz-adv-x="326" d="M212 330v-330h-144v330h-52v116h52v88q0 37 8 78q8 41 42 77q22 23 52.5 37q30.5 14 72.5 14q24 0 44 -4q20 -4 38 -11l0 -126q-12 8 -26.5 12.5q-14.5 4.5 -28.5 4.5q-17 0 -27 -6q-10 -6 -15 -12q-12 -16 -14 -38.5q-2 -22.5 -2 -38.5v-75h114l0 -116z" />
<glyph unicode="&#103;" horiz-adv-x="595" d="M395 446h144v-419q0 -24 -1.5 -48.5q-1.5 -24.5 -6.5 -49q-5 -24.5 -16.5 -48q-11.5 -23.5 -30.5 -44.5q-21 -22 -46 -35q-25 -13 -50.5 -20q-25.5 -7 -49.5 -9q-24 -2 -42 -2q-45 0 -94.5 10.5q-49.5 10.5 -91.5 46.5q-21 18 -40 47q-19 29 -27 71l157 0q5 -17 14 -27.5q9 -10.5 18 -16.5q13 -8 29.5 -11.5q16.5 -3.5 32.5 -3.5q31 0 47.5 8.5q16.5 8.5 24.5 15.5q10 10 16 23q6 13 9 26.5q3 13.5 3.5 25q0.5 11.5 0.5 18.5v51q-6 -11 -16 -22.5q-10 -11.5 -26 -21.5q-16 -10 -38 -16.5q-22 -6.5 -53 -6.5q-52 0 -92 16q-40 16 -71 47q-27 28 -46 69q-19 41 -19 99q0 57 18.5 103q18.5 46 47.5 75q20 21 60 42.5q40 21.5 102 21.5q30 0 52.5 -7q22.5 -7 38.5 -17.5q16 -10.5 26 -22q10 -11.5 16 -20.5zM295 336q-24 0 -44.5 -8q-20.5 -8 -34.5 -21q-17 -16 -25.5 -39.5q-8.5 -23.5 -8.5 -43.5q0 -22 8 -43q8 -21 23 -37q30 -32 81 -32q29 0 48 9q19 9 30 20q35 33 35 85q0 26 -10 47q-10 21 -24 35q-16 14 -37 21t-41 7z" />
<glyph unicode="&#104;" horiz-adv-x="571" d="M60 729h144v-336q14 17 27.5 28q13.5 11 26.5 18q23 12 43 15.5q20 3.5 44 3.5q13 0 29 -1.5q16 -1.5 32.5 -6q16.5 -4.5 33 -13.5q16.5 -9 31.5 -24q15 -15 24 -32.5q9 -17.5 13.5 -35q4.5 -17.5 5.5 -33.5q1 -16 1 -29v-283h-144v229q0 23 -3.5 47.5q-3.5 24.5 -20.5 41.5q-10 10 -25 15q-15 5 -31 5q-23 0 -37 -8q-14 -8 -20 -14q-11 -11 -17 -23.5q-6 -12.5 -9 -25.5q-3 -13 -3.5 -24.5q-0.5 -11.5 -0.5 -19.5v-223l-144 0z" />
<glyph unicode="&#105;" horiz-adv-x="276" d="M210 446v-446h-144v446zM54 636q0 35 24.5 59.5q24.5 24.5 59.5 24.5q35 0 59.5 -24.5q24.5 -24.5 24.5 -59.5q0 -35 -24.5 -59.5q-24.5 -24.5 -59.5 -24.5q-35 0 -59.5 24.5t-24.5 59.5z" />
<glyph unicode="&#106;" horiz-adv-x="276" d="M210 446v-675h-144v675zM54 636q0 35 24.5 59.5q24.5 24.5 59.5 24.5q35 0 59.5 -24.5q24.5 -24.5 24.5 -59.5q0 -35 -24.5 -59.5q-24.5 -24.5 -59.5 -24.5q-35 0 -59.5 24.5t-24.5 59.5z" />
<glyph unicode="&#107;" horiz-adv-x="566" d="M204 729v-447l162 164h189l-212 -202l227 -244h-194l-172 192v-192h-144l0 729z" />
<glyph unicode="&#108;" horiz-adv-x="264" d="M204 729v-729h-144l0 729z" />
<glyph unicode="&#109;" horiz-adv-x="843" d="M56 446h144v-52q14 21 30.5 33.5q16.5 12.5 33 19q16.5 6.5 32.5 8.5q16 2 29 2q14 0 37.5 -3q23.5 -3 46.5 -17q35 -20 54 -62q8 14 21.5 28.5q13.5 14.5 35.5 28.5q23 14 46 19.5q23 5.5 49 5.5q41 0 73 -11q32 -11 52 -31q16 -15 25.5 -33.5q9.5 -18.5 14 -36.5q4.5 -18 5.5 -34.5q1 -16.5 1 -28.5v-282h-144v226q0 17 -2.5 43q-2.5 26 -16.5 44q-19 24 -52 24q-18 0 -32.5 -7.5q-14.5 -7.5 -23.5 -19.5q-14 -18 -18 -42q-4 -24 -4 -46v-222h-144v232q0 23 -3 46.5q-3 23.5 -20 40.5q-11 11 -24 14.5q-13 3.5 -24 3.5q-31 0 -50 -18q-10 -10 -15.5 -23q-5.5 -13 -8.5 -26.5q-3 -13.5 -3.5 -24.5q-0.5 -11 -0.5 -17v-228l-144 0z" />
<glyph unicode="&#110;" horiz-adv-x="567" d="M56 446h144v-53q33 42 69.5 53.5q36.5 11.5 68.5 11.5q29 0 64 -8q35 -8 64 -37q16 -16 25 -33.5q9 -17.5 13.5 -34.5q4.5 -17 5.5 -33.5q1 -16.5 1 -29.5v-282h-144v229q0 22 -3.5 47q-3.5 25 -20.5 42q-8 8 -21.5 14q-13.5 6 -33.5 6q-23 0 -37.5 -7.5q-14.5 -7.5 -22.5 -16.5q-18 -18 -23 -40.5q-5 -22.5 -5 -44.5v-229l-144 0z" />
<glyph unicode="&#111;" horiz-adv-x="592" d="M558 223q0 -43 -16.5 -87.5q-16.5 -44.5 -50.5 -78.5q-30 -30 -79.5 -51q-49.5 -21 -115.5 -21q-66 0 -115.5 21q-49.5 21 -79.5 51q-34 34 -50.5 78.5q-16.5 44.5 -16.5 87.5q0 43 16.5 87.5q16.5 44.5 50.5 78.5q30 30 79.5 51q49.5 21 115.5 21q66 0 115.5 -21q49.5 -21 79.5 -51q34 -34 50.5 -78.5q16.5 -44.5 16.5 -87.5zt0 0zM296 339q-49 0 -81 -32q-16 -16 -24.5 -36.5q-8.5 -20.5 -8.5 -47.5q0 -31 10 -51q10 -20 23 -33q14 -14 33.5 -23q19.5 -9 48.5 -9q48 0 80 32q16 16 24.5 36.5q8.5 20.5 8.5 47.5q0 27 -8.5 47.5q-8.5 20.5 -24.5 36.5q-32 32 -81 32z" />
<glyph unicode="&#112;" horiz-adv-x="598" d="M200 -229h-144v675h144v-53q18 23 37 36.5q19 13.5 37.5 20.5q18.5 7 35 9q16.5 2 29.5 2q60 0 98.5 -21q38.5 -21 59.5 -42q30 -30 48.5 -74.5q18.5 -44.5 18.5 -99.5q0 -58 -19 -102q-19 -44 -52 -77q-33 -33 -69.5 -46.5q-36.5 -13.5 -81.5 -13.5q-33 0 -57.5 7.5q-24.5 7.5 -41.5 18q-17 10.5 -27 21.5q-10 11 -16 19zM304 337q-30 0 -49.5 -11q-19.5 -11 -30.5 -22q-17 -17 -25.5 -39.5q-8.5 -22.5 -8.5 -42.5q0 -21 8 -41.5q8 -20.5 24 -37.5q16 -16 37.5 -25q21.5 -9 44.5 -9q20 0 40.5 8q20.5 8 36.5 23q17 17 26 40q9 23 9 45q0 25 -9.5 46q-9.5 21 -24.5 35q-33 31 -78 31z" />
<glyph unicode="&#113;" horiz-adv-x="598" d="M398 51q-18 -22 -37.5 -35q-19.5 -13 -38.5 -20q-19 -7 -36 -9q-17 -2 -30 -2q-45 0 -81 13q-36 13 -70 47q-33 33 -52 77q-19 44 -19 102q0 56 19 99.5q19 43.5 48 74.5q61 63 156 63q33 0 70 -12.5q37 -12.5 71 -55.5l0 53h144v-675h-144zM294 337q-45 0 -78 -31q-15 -14 -24.5 -35q-9.5 -21 -9.5 -46q0 -22 9 -45q9 -23 26 -40q16 -15 36.5 -23q20.5 -8 40.5 -8q23 0 44.5 9q21.5 9 37.5 25q16 17 24 37.5q8 20.5 8 41.5q0 20 -8.5 42.5q-8.5 22.5 -25.5 39.5q-11 11 -30.5 22t-49.5 11z" />
<glyph unicode="&#114;" horiz-adv-x="384" d="M56 446h144v-70q10 19 24.5 35q14.5 16 31.5 27q18 11 37 15q19 4 40 4q25 0 47 -7l-8 -135q-30 16 -65 16q-44 0 -72 -30q-24 -26 -29.5 -58.5q-5.5 -32.5 -5.5 -61.5v-181l-144 0z" />
<glyph unicode="&#115;" horiz-adv-x="434" d="M329 332q-17 10 -37.5 17.5q-20.5 7.5 -41.5 7.5q-11 0 -22.5 -3q-11.5 -3 -18.5 -10q-9 -9 -9 -20q0 -8 4.5 -12.5q4.5 -4.5 9.5 -7.5q8 -5 18.5 -7.5q10.5 -2.5 24.5 -7.5l38 -12q19 -6 38 -14.5q19 -8.5 36 -24.5q20 -18 27.5 -38.5q7.5 -20.5 7.5 -46.5q0 -45 -15.5 -73.5q-15.5 -28.5 -30.5 -43.5q-33 -33 -71.5 -42q-38.5 -9 -73.5 -9q-45 0 -92 13q-47 13 -91 51l61 97q11 -9 24.5 -18.5q13.5 -9.5 24.5 -14.5q15 -8 30.5 -11q15.5 -3 29.5 -3q7 0 21 1q14 1 24 9q15 12 15 29q0 6 -3 13q-3 7 -13 13q-8 5 -18 8q-10 3 -26 8l-36 11q-20 6 -39 16.5q-19 10.5 -33 24.5q-16 17 -24 36q-8 19 -8 45q0 32 11.5 58.5q11.5 26.5 31.5 44.5q30 28 67 36.5q37 8.5 68 8.5q50 0 85.5 -11q35.5 -11 62.5 -27z" />
<glyph unicode="&#116;" horiz-adv-x="299" d="M204 330v-330h-144v330h-50v116h50v144h144v-144h89l0 -116z" />
<glyph unicode="&#117;" horiz-adv-x="570" d="M200 446v-246q0 -15 4 -35.5q4 -20.5 21 -36.5q8 -7 22 -14q14 -7 38 -7q20 0 35.5 6q15.5 6 25.5 15q16 15 20 35q4 20 4 37v246h144v-260q0 -38 -8 -74q-8 -36 -42 -69q-19 -19 -42 -30.5q-23 -11.5 -47 -17.5q-24 -6 -47 -8q-23 -2 -43 -2q-21 0 -44.5 2q-23.5 2 -47 8q-23.5 6 -46.5 17.5q-23 11.5 -42 30.5q-31 30 -40 63.5q-9 33.5 -9 70.5l0 269z" />
<glyph unicode="&#118;" horiz-adv-x="546" d="M160 446l113 -239l113 239h158l-226 -446h-90l-226 446z" />
<glyph unicode="&#119;" horiz-adv-x="852" d="M314 0h-90l-222 446h158l115 -237l113 243h76l113 -243l115 237h158l-222 -446h-90l-112 254z" />
<glyph unicode="&#120;" horiz-adv-x="620" d="M220 243l-177 203h184l83 -103l83 103h184l-177 -203l218 -243h-186l-122 144l-122 -144l-186 0z" />
<glyph unicode="&#121;" horiz-adv-x="585" d="M215 57l-213 389h166l126 -242l123 242h162l-359 -675l-162 0z" />
<glyph unicode="&#122;" horiz-adv-x="499" d="M256 120h211v-120h-455l232 326h-197v120l440 0z" />
<glyph unicode="&#123;" horiz-adv-x="504" d="M242 272q19 -8 30 -19.5q11 -11.5 16 -22.5q7 -14 10.5 -33.5q3.5 -19.5 3.5 -50.5v-160q0 -11 1.5 -23.5q1.5 -12.5 10.5 -21.5q11 -11 29.5 -12.5q18.5 -1.5 41.5 -1.5h19v-109q-13 -1 -33 -1.5q-20 -0.5 -40 -0.5q-31 0 -61 4.5q-30 4.5 -55 27.5q-27 25 -31.5 53.5q-4.5 28.5 -4.5 58.5v189q0 14 -2.5 29q-2.5 15 -14.5 27q-7 7 -16.5 11.5q-9.5 4.5 -21.5 5.5l0 106q12 1 21.5 5.5q9.5 4.5 16.5 11.5q12 12 14.5 27q2.5 15 2.5 29v184q0 30 4.5 58.5q4.5 28.5 31.5 53.5q25 23 55 27.5q30 4.5 61 4.5q20 0 40 -0.5q20 -0.5 33 -1.5l0 -109h-19q-23 0 -41.5 -1.5q-18.5 -1.5 -29.5 -12.5q-9 -9 -10.5 -21.5q-1.5 -12.5 -1.5 -23.5v-161q0 -31 -3.5 -50.5q-3.5 -19.5 -10.5 -33.5q-5 -11 -16 -22.5t-30 -19.5z" />
<glyph unicode="&#124;" horiz-adv-x="504" d="M189 750h126v-1000l-126 0z" />
<glyph unicode="&#125;" horiz-adv-x="504" d="M202 146q0 31 3.5 50.5q3.5 19.5 10.5 33.5q5 11 16 22.5q11 11.5 30 19.5q-19 8 -30 19.5q-11 11.5 -16 22.5q-7 14 -10.5 33.5q-3.5 19.5 -3.5 50.5v161q0 11 -1.5 23.5q-1.5 12.5 -10.5 21.5q-11 11 -29.5 12.5q-18.5 1.5 -41.5 1.5h-19v109q13 1 33 1.5q20 0.5 40 0.5q31 0 61 -4.5q30 -4.5 55 -27.5q27 -25 31.5 -53.5q4.5 -28.5 4.5 -58.5v-184q0 -14 2.5 -29q2.5 -15 14.5 -27q7 -7 16.5 -11.5q9.5 -4.5 21.5 -5.5l0 -106q-12 -1 -21.5 -5.5q-9.5 -4.5 -16.5 -11.5q-12 -12 -14.5 -27q-2.5 -15 -2.5 -29v-189q0 -30 -4.5 -58.5q-4.5 -28.5 -31.5 -53.5q-25 -23 -55 -27.5q-30 -4.5 -61 -4.5q-20 0 -40 0.5q-20 0.5 -33 1.5l0 109h19q23 0 41.5 1.5q18.5 1.5 29.5 12.5q9 9 10.5 21.5q1.5 12.5 1.5 23.5z" />
<glyph unicode="&#126;" horiz-adv-x="500" d="M218 239q-14 5 -27.5 10.5q-13.5 5.5 -36.5 5.5q-16 0 -27 -3.5q-11 -3.5 -22 -14.5q-18 -18 -28 -43l-71 43l5 11q20 43 33.5 63.5q13.5 20.5 22.5 29.5q36 36 90 36q28 0 49 -6.5q21 -6.5 38 -13.5l38 -14q17 -7 33.5 -11.5q16.5 -4.5 34.5 -4.5q29 0 48 18q17 17 24 34l72 -42l-4 -8q-9 -18 -21 -39.5q-12 -21.5 -32 -41.5q-22 -23 -44 -33q-22 -10 -52 -10q-25 0 -45 6q-20 6 -42 14z" />
<glyph unicode="&#160;" horiz-adv-x="233" />
<glyph unicode="&#161;" horiz-adv-x="278" d="M213 -230h-148v452h148zM48 362q0 38 26.5 64.5q26.5 26.5 64.5 26.5q38 0 64.5 -26.5q26.5 -26.5 26.5 -64.5q0 -38 -26.5 -64.5q-26.5 -26.5 -64.5 -26.5q-38 0 -64.5 26.5t-26.5 64.5z" />
<glyph unicode="&#162;" horiz-adv-x="600" d="M399 660v-94q34 -3 63 -19l0 -133q-18 20 -40.5 29q-22.5 9 -45.5 9q-21 0 -43 -8q-22 -8 -39 -24q-15 -14 -24.5 -36q-9.5 -22 -9.5 -50q0 -29 10 -50.5q10 -21.5 24 -35.5q15 -14 37 -21q22 -7 43 -7q17 0 42 7q25 7 46 30l0 -134q-31 -14 -63 -17l0 -93h-90v89q-28 4 -62 17q-34 13 -68 46q-37 36 -52 77q-15 41 -15 87q0 62 21 105.5q21 43.5 48 70.5q17 17 48.5 37q31.5 20 79.5 28l0 90z" />
<glyph unicode="&#163;" horiz-adv-x="600" d="M47 248v92h68q-14 23 -22 50.5q-8 27.5 -8 63.5q0 51 16 89.5q16 38.5 47 68.5q42 41 90.5 55q48.5 14 97.5 14q60 0 104 -17q44 -17 71 -43q31 -29 46.5 -73q15.5 -44 15.5 -92q0 -6 0 -12q0 -6 -1 -12l-153 0q0 26 -4.5 52q-4.5 26 -20.5 43q-9 9 -25 17.5q-16 8.5 -40 8.5q-17 0 -33 -5q-16 -5 -30 -18q-13 -12 -22.5 -31.5q-9.5 -19.5 -9.5 -48.5q0 -16 4 -32.5q4 -16.5 9 -31.5q5 -15 11 -27q6 -12 9 -19l149 0v-92h-125q3 -11 5.5 -23.5q2.5 -12.5 2.5 -23.5q0 -13 -3 -29.5q-3 -16.5 -7 -29.5l58 -19q30 -10 49.5 -14q19.5 -4 33.5 -4q9 0 20 2.5q11 2.5 19 11.5q6 6 9.5 16q3.5 10 5.5 18l98 -12q-4 -29 -16.5 -61.5q-12.5 -32.5 -32.5 -53.5q-17 -17 -42 -29q-25 -12 -61 -12q-12 0 -39.5 3.5q-27.5 3.5 -75.5 19.5l-39 13q-16 5 -35.5 9.5q-19.5 4.5 -40.5 4.5q-10 0 -24 -2q-14 -2 -25 -11q-13 -9 -19 -27l-104 9q7 28 21 57q14 29 33 48q11 11 31 24.5q20 13.5 52 18.5q3 10 5.5 22.5q2.5 12.5 2.5 23.5q0 10 -3 23q-3 13 -11 27z" />
<glyph unicode="&#164;" horiz-adv-x="667" d="M21 135l103 103q-22 28 -33 61q-11 33 -11 77q0 23 6.5 58.5q6.5 35.5 38.5 79.5l-104 104l68 68l104 -103q40 30 77 37q37 7 63 7q26 0 63.5 -7q37.5 -7 75.5 -37l103 103l68 -68l-102 -103q15 -19 24 -38.5q9 -19.5 13.5 -37.5q4.5 -18 6 -34q1.5 -16 1.5 -29q0 -29 -7 -65.5q-7 -36.5 -37 -72.5l103 -103l-68 -68l-103 103q-24 -20 -57 -32.5q-33 -12.5 -84 -12.5q-52 0 -85 13q-33 13 -56 31l-103 -102zM333 237q59 0 97 38q22 22 31 47q9 25 9 54q0 38 -12.5 62q-12.5 24 -26.5 38q-17 17 -42 28q-25 11 -56 11q-34 0 -58.5 -11.5q-24.5 -11.5 -39.5 -27.5q-16 -16 -27.5 -40.5q-11.5 -24.5 -11.5 -59.5q0 -31 10 -55q10 -24 28 -43q21 -23 45 -32t54 -9z" />
<glyph unicode="&#165;" horiz-adv-x="600" d="M62 347v97h82l-134 223h174l117 -212l114 212h176l-138 -223h86v-97h-146l-23 -35v-28h169v-97h-169v-187h-146v187h-162v97h162v28l-22 35z" />
<glyph unicode="&#166;" horiz-adv-x="504" d="M189 750h126v-385h-126zM189 136h126v-386l-126 0z" />
<glyph unicode="&#167;" horiz-adv-x="574" d="M351 545q0 16 -5 33q-5 17 -14 26q-18 18 -47 18q-17 0 -27 -5q-10 -5 -16 -10q-17 -15 -17 -39q0 -20 9.5 -32.5q9.5 -12.5 21.5 -20.5q17 -12 37.5 -20.5q20.5 -8.5 43.5 -19.5l31 -14q29 -13 51 -27q22 -14 38 -31q17 -17 30.5 -45q13.5 -28 13.5 -69q0 -32 -9 -60q-9 -28 -24 -49q-11 -16 -29.5 -32.5q-18.5 -16.5 -46.5 -27.5q17 -8 32.5 -20.5q15.5 -12.5 26.5 -29.5q14 -20 19 -39.5q5 -19.5 5 -39.5q0 -38 -13 -70.5q-13 -32.5 -37 -55.5q-33 -32 -69 -40.5q-36 -8.5 -66 -8.5q-18 0 -37.5 2.5q-19.5 2.5 -38.5 8.5q-19 6 -37 17q-18 11 -34 28q-23 25 -37.5 61q-14.5 36 -16.5 76l130 0q0 -17 5 -33q5 -16 13 -27q7 -9 19 -16q12 -7 31 -7q17 0 28 5.5q11 5.5 16 10.5q20 18 20 51q0 27 -21 47q-14 12 -33.5 20q-19.5 8 -50.5 19q-36 13 -69.5 28.5q-33.5 15.5 -56.5 39.5q-29 29 -38 63.5q-9 34.5 -9 65.5q0 24 5.5 50q5.5 26 22.5 49q11 17 30.5 32.5q19.5 15.5 47.5 26.5q-16 8 -30 20q-14 12 -25 26q-14 19 -20 38q-6 19 -6 45q0 41 13 69q13 28 31 47q31 32 68 41q37 9 71 9q59 0 93.5 -15.5q34.5 -15.5 52.5 -34.5q23 -23 37 -61q14 -38 17 -73zM288 356q-17 0 -31 -5q-14 -5 -26 -17q-14 -14 -18 -28.5q-4 -14.5 -4 -28.5q0 -15 4 -29.5q4 -14.5 18 -28.5q22 -22 57 -22q15 0 29 5q14 5 26 17q14 14 18 28.5q4 14.5 4 29.5q0 14 -4 28.5q-4 14.5 -18 28.5q-12 12 -26 17t-29 5z" />
<glyph unicode="&#168;" horiz-adv-x="500" d="M280 599q0 32 23.5 55.5q23.5 23.5 55.5 23.5q32 0 55.5 -23.5q23.5 -23.5 23.5 -55.5q0 -32 -23.5 -55.5q-23.5 -23.5 -55.5 -23.5q-32 0 -55.5 23.5q-23.5 23.5 -23.5 55.5zt0 0zM62 599q0 32 23.5 55.5q23.5 23.5 55.5 23.5q32 0 55.5 -23.5q23.5 -23.5 23.5 -55.5q0 -32 -23.5 -55.5q-23.5 -23.5 -55.5 -23.5q-32 0 -55.5 23.5t-23.5 55.5z" />
<glyph unicode="&#169;" horiz-adv-x="762" d="M507 396q-17 20 -43.5 35q-26.5 15 -58.5 15q-20 0 -42 -7.5q-22 -7.5 -38 -22.5q-17 -16 -24.5 -39q-7.5 -23 -7.5 -45q0 -24 7.5 -44q7.5 -20 20.5 -34q15 -16 37 -25q22 -9 48 -9q19 0 34.5 5q15.5 5 28.5 12.5q13 7.5 22.5 16q9.5 8.5 15.5 15.5l0 -120q-31 -14 -58 -19.5q-27 -5.5 -53 -5.5q-58 0 -96 18q-38 18 -61 41q-25 26 -41.5 64q-16.5 38 -16.5 84q0 47 16.5 85q16.5 38 42.5 64q25 26 65 44q40 18 95 18q24 0 52 -5.5q28 -5.5 55 -18.5zM381 620q-24 0 -50 -5.5q-26 -5.5 -51 -15.5q-25 -10 -48 -24.5q-23 -14.5 -42 -32.5q-37 -36 -61.5 -91.5q-24.5 -55.5 -24.5 -116.5q0 -62 24.5 -118q24.5 -56 61.5 -91q19 -18 42 -32.5q23 -14.5 48 -24.5q25 -10 51 -15.5q26 -5.5 50 -5.5q24 0 50 5.5q26 5.5 51 15.5q25 10 48 24.5q23 14.5 42 32.5q37 35 61.5 91q24.5 56 24.5 118q0 61 -24.5 116.5q-24.5 55.5 -61.5 91.5q-19 18 -42 32.5q-23 14.5 -48 24.5q-25 10 -51 15.5q-26 5.5 -50 5.5zt0 0zM728 333q0 -72 -27 -136q-27 -64 -76 -113q-45 -44 -106.5 -71.5q-61.5 -27.5 -137.5 -27.5q-76 0 -137.5 27.5q-61.5 27.5 -106.5 71.5q-49 49 -76 113q-27 64 -27 136q0 73 27 137q27 64 76 113q45 44 106.5 71.5q61.5 27.5 137.5 27.5q76 0 137.5 -27.5q61.5 -27.5 106.5 -71.5q49 -49 76 -113t27 -137z" />
<glyph unicode="&#170;" horiz-adv-x="352" d="M236 659h84v-264h-84v32q-18 -26 -41 -33.5q-23 -7.5 -41 -7.5q-34 0 -56 11q-22 11 -35 24q-26 25 -33.5 53.5q-7.5 28.5 -7.5 52.5q0 29 9 55.5q9 26.5 32 49.5q14 14 36 24.5q22 10.5 54 10.5q16 0 39.5 -6.5q23.5 -6.5 43.5 -31.5zM32 357h288v-66h-288zM174 593q-13 0 -26 -5q-13 -5 -23 -16q-17 -18 -17 -47q0 -10 3 -22q3 -12 14 -23q8 -8 20.5 -14q12.5 -6 28.5 -6q18 0 29.5 6q11.5 6 19.5 14q17 18 17 45q0 13 -3 25q-3 12 -14 23q-10 10 -23 15t-26 5z" />
<glyph unicode="&#171;" horiz-adv-x="534" d="M276 65l-81 -57l-155 216l155 215l79 -55l-116 -160zM484 65l-81 -57l-155 216l155 215l79 -55l-116 -160z" />
<glyph unicode="&#172;" horiz-adv-x="500" d="M342 0v149h-310v118h436l0 -267z" />
<glyph unicode="&#173;" horiz-adv-x="356" d="M50 316h256v-126l-256 0z" />
<glyph unicode="&#174;" horiz-adv-x="761" d="M369 529q12 0 27.5 -1q15.5 -1 31.5 -5q16 -4 32 -12q16 -8 29 -21q14 -14 22.5 -35.5q8.5 -21.5 8.5 -46.5q0 -24 -8 -43q-8 -19 -21 -33q-14 -15 -28.5 -21.5q-14.5 -6.5 -25.5 -8.5l107 -152h-133l-76 128v-128h-108v379zM335 361h15q12 0 23 1q11 1 22 8q19 12 19 37q0 7 -2.5 16q-2.5 9 -11.5 16q-11 8 -26 9q-15 1 -25 1h-14zM380 620q-24 0 -50 -5.5q-26 -5.5 -51 -15.5q-25 -10 -48 -24.5q-23 -14.5 -42 -32.5q-37 -36 -61.5 -91.5q-24.5 -55.5 -24.5 -116.5q0 -62 24.5 -118q24.5 -56 61.5 -91q19 -18 42 -32.5q23 -14.5 48 -24.5q25 -10 51 -15.5q26 -5.5 50 -5.5q24 0 50 5.5q26 5.5 51 15.5q25 10 48 24.5q23 14.5 42 32.5q37 35 61.5 91q24.5 56 24.5 118q0 61 -24.5 116.5q-24.5 55.5 -61.5 91.5q-19 18 -42 32.5q-23 14.5 -48 24.5q-25 10 -51 15.5q-26 5.5 -50 5.5zt0 0zM727 333q0 -72 -27 -136q-27 -64 -76 -113q-45 -44 -106.5 -71.5q-61.5 -27.5 -137.5 -27.5q-76 0 -137.5 27.5q-61.5 27.5 -106.5 71.5q-49 49 -76 113q-27 64 -27 136q0 73 27 137q27 64 76 113q45 44 106.5 71.5q61.5 27.5 137.5 27.5q76 0 137.5 -27.5q61.5 -27.5 106.5 -71.5q49 -49 76 -113t27 -137z" />
<glyph unicode="&#175;" horiz-adv-x="500" d="M60 633h380v-90l-380 0z" />
<glyph unicode="&#176;" horiz-adv-x="502" d="M175 515q0 -30 22 -52q22 -22 54 -22q32 0 54 22q22 22 22 52q0 30 -22 52q-22 22 -54 22q-32 0 -54 -22q-22 -22 -22 -52zt0 0zM97 515q0 32 12 59.5q12 27.5 32.5 48q20.5 20.5 48.5 32.5q28 12 61 12q33 0 61 -12q28 -12 48.5 -32.5q20.5 -20.5 32.5 -48q12 -27.5 12 -59.5q0 -32 -12 -59.5q-12 -27.5 -32.5 -48q-20.5 -20.5 -48.5 -32.5q-28 -12 -61 -12q-33 0 -61 12q-28 12 -48.5 32.5q-20.5 20.5 -32.5 48t-12 59.5z" />
<glyph unicode="&#177;" horiz-adv-x="500" d="M33 472h154v155h126v-155h154v-116h-154v-155h-126v155h-154zM33 167h434v-116l-434 0z" />
<glyph unicode="&#178;" horiz-adv-x="395" d="M134 394q19 21 32.5 36.5q13.5 15.5 22.5 26.5q9 11 15 19q6 8 10 15q16 26 16 55q0 17 -5 26q-5 9 -8 13q-12 14 -37 14q-23 0 -36 -18q-5 -8 -8.5 -19.5q-3.5 -11.5 -4.5 -22.5l-94 0q2 27 13 55q11 28 30 47q18 18 46 28q28 10 61 10q35 0 62.5 -10.5q27.5 -10.5 44.5 -27.5q24 -23 30 -49q6 -26 6 -43q0 -26 -6 -46q-6 -20 -18 -40q-12 -20 -25.5 -34q-13.5 -14 -29.5 -30l-48 -46h131v-78l-305 0z" />
<glyph unicode="&#179;" horiz-adv-x="395" d="M124 397q2 -25 18 -40q5 -5 15 -9.5q10 -4.5 26 -4.5q25 0 41 13q17 14 17 39q0 14 -5.5 22.5q-5.5 8.5 -11.5 13.5q-12 10 -26.5 11q-14.5 1 -25.5 1h-11v70h10q11 0 21.5 1.5q10.5 1.5 19.5 8.5q7 5 11.5 14.5q4.5 9.5 4.5 21.5q0 14 -5 21.5q-5 7.5 -10 12.5q-13 10 -32 10q-15 0 -23.5 -5.5q-8.5 -5.5 -11.5 -8.5q-12 -14 -12 -34l-94 0q3 24 13 47q10 23 25 39q22 23 49.5 30.5q27.5 7.5 54.5 7.5q26 0 55.5 -6q29.5 -6 52.5 -27q20 -19 26 -40q6 -21 6 -38q0 -13 -2.5 -26q-2.5 -13 -10.5 -26q-5 -7 -12.5 -15q-7.5 -8 -19.5 -15q23 -10 36 -23q11 -11 19.5 -28q8.5 -17 8.5 -43q0 -19 -6.5 -43q-6.5 -24 -29.5 -47q-26 -26 -55.5 -32.5q-29.5 -6.5 -55.5 -6.5q-32 0 -63 7.5q-31 7.5 -57 32.5q-16 15 -28.5 39q-12.5 24 -15.5 55z" />
<glyph unicode="&#180;" horiz-adv-x="500" d="M411 650l-152 -135l-65 48l123 152z" />
<glyph unicode="&#181;" horiz-adv-x="566" d="M83 -229v675h144v-215q0 -32 6 -66.5q6 -34.5 29 -54.5q11 -9 23 -12.5q12 -3.5 25 -3.5q13 0 25 3.5q12 3.5 23 12.5q12 10 18.5 24q6.5 14 10.5 30.5q4 16.5 5 34q1 17.5 1 32.5v215h144v-446h-141v58q-5 -12 -13 -26.5q-8 -14.5 -18 -23.5q-13 -11 -27 -14.5q-14 -3.5 -28 -3.5q-14 0 -28 3.5q-14 3.5 -27 14.5q-11 9 -19 23.5q-8 14.5 -12 26.5l0 -287z" />
<glyph unicode="&#182;" horiz-adv-x="659" d="M216 -94v415h-8q-32 0 -69 9q-37 9 -69 42q-28 29 -36 61q-8 32 -8 58q0 37 11 67.5q11 30.5 38 56.5q34 33 76.5 42.5q42.5 9.5 104.5 9.5h331v-98h-72v-663h-108v663h-83l0 -663z" />
<glyph unicode="&#183;" horiz-adv-x="256" d="M20 334q0 46 31 77q31 31 77 31q46 0 77 -31q31 -31 31 -77q0 -46 -31 -77q-31 -31 -77 -31q-46 0 -77 31t-31 77z" />
<glyph unicode="&#184;" horiz-adv-x="500" d="M358 -90l-118 -146l-74 40l98 150z" />
<glyph unicode="&#185;" horiz-adv-x="395" d="M163 589h-67v78h159v-392l-92 0z" />
<glyph unicode="&#186;" horiz-adv-x="346" d="M29 357h288v-66h-288zM173 593q-17 0 -29 -6q-12 -6 -20 -14q-8 -8 -12.5 -20q-4.5 -12 -4.5 -27q0 -29 17 -46q8 -8 21 -14q13 -6 28 -6q31 0 49 20q8 8 12.5 19.5q4.5 11.5 4.5 26.5q0 15 -4.5 27q-4.5 12 -12.5 20q-8 8 -20 14q-12 6 -29 6zt0 0zM325 527q0 -30 -11 -55q-11 -25 -28 -43q-20 -20 -48.5 -31.5q-28.5 -11.5 -64.5 -11.5q-36 0 -64.5 11.5q-28.5 11.5 -48.5 31.5q-17 18 -28 43q-11 25 -11 55q0 31 11 55.5q11 24.5 28 41.5q20 20 48.5 31.5q28.5 11.5 64.5 11.5q36 0 64.5 -11.5q28.5 -11.5 48.5 -31.5q17 -17 28 -41.5t11 -55.5z" />
<glyph unicode="&#187;" horiz-adv-x="534" d="M52 384l79 55l155 -215l-155 -216l-81 57l118 159zM260 384l79 55l155 -215l-155 -216l-81 57l118 159z" />
<glyph unicode="&#188;" horiz-adv-x="860" d="M734 150h46v-74h-46v-76h-88v76h-192v50l174 274h106zM646 150v148l-94 -148zM153 589h-67v78h159v-400h-92zM563 678l68 -23l-390 -669l-68 24z" />
<glyph unicode="&#189;" horiz-adv-x="860" d="M142 589h-66v78h158v-392h-92zM552 678l68 -23l-390 -669l-68 24zM594 119q29 34 48.5 55q19.5 21 31.5 42q16 26 16 55q0 17 -5 26q-5 9 -8 13q-2 2 -10.5 8q-8.5 6 -23.5 6q-25 0 -38 -18q-7 -9 -10 -21q-3 -12 -4 -21l-94 0q2 27 13 55q11 28 30 47q19 18 46 28q27 10 58 10q35 0 63 -10q28 -10 46 -27q25 -23 31 -50q6 -27 6 -43q0 -28 -6.5 -48q-6.5 -20 -19.5 -40q-14 -23 -26.5 -35.5q-12.5 -12.5 -26.5 -26.5l-48 -46h131v-78l-304 0z" />
<glyph unicode="&#190;" horiz-adv-x="859" d="M122 399q2 -25 18 -40q5 -5 15 -9.5q10 -4.5 26 -4.5q28 0 41 13q17 15 17 38q0 25 -17 38q-12 9 -26.5 10.5q-14.5 1.5 -25.5 1.5h-11v70h10q11 0 21.5 1.5q10.5 1.5 19.5 8.5q7 5 11.5 14.5q4.5 9.5 4.5 21.5q0 14 -5 21.5q-5 7.5 -10 12.5q-13 10 -32 10q-15 0 -23.5 -5.5q-8.5 -5.5 -11.5 -8.5q-12 -14 -12 -34l-90 0q3 24 13 47q10 23 25 39q22 23 49.5 30.5q27.5 7.5 54.5 7.5q24 0 52.5 -6q28.5 -6 51.5 -27q20 -19 26 -40q6 -21 6 -38q0 -13 -2.5 -26q-2.5 -13 -10.5 -26q-5 -7 -12.5 -15q-7.5 -8 -19.5 -15q23 -10 36 -23q11 -11 19.5 -28.5q8.5 -17.5 8.5 -44.5q0 -33 -11.5 -54.5q-11.5 -21.5 -24.5 -34.5q-26 -26 -55.5 -32.5q-29.5 -6.5 -55.5 -6.5q-32 0 -63 7.5q-31 7.5 -57 32.5q-16 15 -28.5 39q-12.5 24 -15.5 55zM612 678l68 -23l-390 -669l-68 24zM695 150v148l-94 -148zM783 150h46v-74h-46v-76h-88v76h-192v50l174 274l106 0z" />
<glyph unicode="&#191;" horiz-adv-x="525" d="M352 226v-184q-23 5 -43 5q-24 0 -46.5 -6q-22.5 -6 -38.5 -20q-14 -12 -22 -30q-8 -18 -8 -39q0 -30 19 -51q11 -12 24 -15.5q13 -3.5 24 -3.5q20 0 32 6q12 6 19 13q8 9 12.5 25q4.5 16 4.5 31l154 0q-1 -46 -17.5 -81q-16.5 -35 -37.5 -57q-9 -10 -23.5 -20.5q-14.5 -10.5 -34.5 -19.5q-20 -9 -46.5 -15q-26.5 -6 -60.5 -6q-59 0 -99 17.5q-40 17.5 -66 42.5q-30 29 -43 65.5q-13 36.5 -13 72.5q0 42 15 73.5q15 31.5 35 53.5q15 17 43 35q28 18 71 24l0 84zM366 362q0 -38 -26.5 -64.5q-26.5 -26.5 -64.5 -26.5q-38 0 -64.5 26.5q-26.5 26.5 -26.5 64.5q0 38 26.5 64.5q26.5 26.5 64.5 26.5q38 0 64.5 -26.5t26.5 -64.5z" />
<glyph unicode="&#192;" horiz-adv-x="677" d="M465 126h-252l-51 -126h-160l269 667h141l263 -667h-160zM423 244l-82 224l-83 -224zM190 853l96 72l133 -148l-65 -53z" />
<glyph unicode="&#193;" horiz-adv-x="677" d="M465 126h-252l-51 -126h-160l269 667h141l263 -667h-160zM423 244l-82 224l-83 -224zM489 853l-164 -129l-65 53l134 148z" />
<glyph unicode="&#194;" horiz-adv-x="677" d="M465 126h-252l-51 -126h-160l269 667h141l263 -667h-160zM423 244l-82 224l-83 -224zM150 797l188 140l189 -140l-66 -71l-123 93l-124 -93z" />
<glyph unicode="&#195;" horiz-adv-x="677" d="M465 126h-252l-51 -126h-160l269 667h141l263 -667h-160zM423 244l-82 224l-83 -224zM535 817q-16 -32 -42 -58q-12 -12 -28.5 -21.5q-16.5 -9.5 -42.5 -9.5q-16 0 -30.5 4.5q-14.5 4.5 -31.5 11.5l-41 16q-12 5 -20.5 8q-8.5 3 -16.5 3q-11 0 -23.5 -7q-12.5 -7 -22.5 -32l-71 50q5 11 15.5 29.5q10.5 18.5 21.5 29.5q16 17 34.5 23.5q18.5 6.5 38.5 6.5q19 0 33 -4.5q14 -4.5 27 -9.5l40 -16q8 -3 18.5 -7.5q10.5 -4.5 22.5 -4.5q32 0 48 38z" />
<glyph unicode="&#196;" horiz-adv-x="677" d="M465 126h-252l-51 -126h-160l269 667h141l263 -667h-160zM423 244l-82 224l-83 -224zM150 811q0 32 23.5 55.5q23.5 23.5 55.5 23.5q32 0 55.5 -23.5q23.5 -23.5 23.5 -55.5q0 -32 -23.5 -55.5q-23.5 -23.5 -55.5 -23.5q-32 0 -55.5 23.5q-23.5 23.5 -23.5 55.5zt0 0zM368 811q0 32 23.5 55.5q23.5 23.5 55.5 23.5q32 0 55.5 -23.5q23.5 -23.5 23.5 -55.5q0 -32 -23.5 -55.5q-23.5 -23.5 -55.5 -23.5q-32 0 -55.5 23.5t-23.5 55.5z" />
<glyph unicode="&#197;" horiz-adv-x="677" d="M465 126h-252l-51 -126h-160l269 667h141l263 -667h-160zM423 244l-82 224l-83 -224zM454 827q0 -39 -27 -66q-17 -16 -40 -24q-23 -8 -49 -8q-26 0 -49 8q-23 8 -40 24q-27 27 -27 66q0 39 27 66q17 16 40 24q23 8 49 8q26 0 49 -8q23 -8 40 -24q27 -27 27 -66zt0 0zM338 866q-22 0 -34 -12q-12 -12 -12 -27q0 -15 12 -27q12 -12 34 -12q22 0 34 12q12 12 12 27q0 15 -12 27q-12 12 -34 12z" />
<glyph unicode="&#198;" horiz-adv-x="920" d="M471 129h-255l-50 -129h-160l273 667h144h235l48 -130h-232l51 -129h230l50 -130h-231l59 -148h232l49 -130h-232h-160zM429 247l-82 219l-86 -219z" />
<glyph unicode="&#199;" horiz-adv-x="605" d="M555 21q-45 -23 -81 -29.5q-36 -6.5 -66 -6.5q-92 0 -156 28q-64 28 -106 69q-45 44 -74.5 108q-29.5 64 -29.5 145q0 79 29.5 143q29.5 64 74.5 108q45 43 108 69.5q63 26.5 141 26.5q33 0 72 -8q39 -8 88 -29l0 -178q-26 27 -64 49q-38 22 -92 22q-82 0 -136 -52q-28 -27 -45.5 -66.5q-17.5 -39.5 -17.5 -87.5q0 -52 17.5 -88.5q17.5 -36.5 40.5 -58.5q5 -5 16.5 -14.5q11.5 -9.5 29.5 -18.5q18 -9 42.5 -16q24.5 -7 55.5 -7q15 0 32.5 2.5q17.5 2.5 37 10q19.5 7.5 40.5 21q21 13.5 43 35.5zM485 -90l-112 -146l-80 40l92 150z" />
<glyph unicode="&#200;" horiz-adv-x="502" d="M450 537h-223v-129h212v-130h-212v-148h223v-130h-377v667h377zM121 853l96 72l133 -148l-65 -53z" />
<glyph unicode="&#201;" horiz-adv-x="502" d="M450 537h-223v-129h212v-130h-212v-148h223v-130h-377v667h377zM420 853l-164 -129l-65 53l134 148z" />
<glyph unicode="&#202;" horiz-adv-x="502" d="M450 537h-223v-129h212v-130h-212v-148h223v-130h-377v667h377zM66 797l188 140l189 -140l-66 -71l-123 93l-124 -93z" />
<glyph unicode="&#203;" horiz-adv-x="502" d="M450 537h-223v-129h212v-130h-212v-148h223v-130h-377v667h377zM67 811q0 32 23.5 55.5q23.5 23.5 55.5 23.5q32 0 55.5 -23.5q23.5 -23.5 23.5 -55.5q0 -32 -23.5 -55.5q-23.5 -23.5 -55.5 -23.5q-32 0 -55.5 23.5q-23.5 23.5 -23.5 55.5zt0 0zM285 811q0 32 23.5 55.5q23.5 23.5 55.5 23.5q32 0 55.5 -23.5q23.5 -23.5 23.5 -55.5q0 -32 -23.5 -55.5q-23.5 -23.5 -55.5 -23.5q-32 0 -55.5 23.5t-23.5 55.5z" />
<glyph unicode="&#204;" horiz-adv-x="306" d="M230 667v-667h-154v667zM5 853l96 72l133 -148l-65 -53z" />
<glyph unicode="&#205;" horiz-adv-x="306" d="M230 667v-667h-154v667zM304 853l-164 -129l-65 53l134 148z" />
<glyph unicode="&#206;" horiz-adv-x="306" d="M230 667v-667h-154v667zM-35 797l188 140l189 -140l-66 -71l-123 93l-124 -93z" />
<glyph unicode="&#207;" horiz-adv-x="306" d="M230 667v-667h-154v667zM-35 811q0 32 23.5 55.5q23.5 23.5 55.5 23.5q32 0 55.5 -23.5q23.5 -23.5 23.5 -55.5q0 -32 -23.5 -55.5q-23.5 -23.5 -55.5 -23.5q-32 0 -55.5 23.5q-23.5 23.5 -23.5 55.5zt0 0zM183 811q0 32 23.5 55.5q23.5 23.5 55.5 23.5q32 0 55.5 -23.5q23.5 -23.5 23.5 -55.5q0 -32 -23.5 -55.5q-23.5 -23.5 -55.5 -23.5q-32 0 -55.5 23.5t-23.5 55.5z" />
<glyph unicode="&#208;" horiz-adv-x="712" d="M100 667h211q33 0 66.5 -3.5q33.5 -3.5 67 -13q33.5 -9.5 66 -27.5q32.5 -18 63.5 -48q45 -43 70.5 -102q25.5 -59 25.5 -137q0 -79 -24.5 -136.5q-24.5 -57.5 -66.5 -99.5q-35 -35 -72.5 -55q-37.5 -20 -72.5 -30q-35 -10 -66 -12.5q-31 -2.5 -52 -2.5h-216v303h-90v110h90zM254 413h120v-110h-120v-173h41q12 0 30 1q18 1 39 5.5q21 4.5 42.5 13.5q21.5 9 40.5 25q27 23 46 64q19 41 19 97q0 54 -17.5 89q-17.5 35 -37.5 55q-19 19 -40 30q-21 11 -42 17q-21 6 -41.5 8q-20.5 2 -38.5 2l-41 0z" />
<glyph unicode="&#209;" horiz-adv-x="796" d="M73 0v667h134l362 -430v430h154v-667h-134l-362 432v-432zM590 817q-16 -32 -42 -58q-12 -12 -28.5 -21.5q-16.5 -9.5 -42.5 -9.5q-16 0 -30.5 4.5q-14.5 4.5 -31.5 11.5l-41 16q-12 5 -20.5 8q-8.5 3 -16.5 3q-11 0 -23.5 -7q-12.5 -7 -22.5 -32l-71 50q5 11 15.5 29.5q10.5 18.5 21.5 29.5q16 17 34.5 23.5q18.5 6.5 38.5 6.5q19 0 33 -4.5q14 -4.5 27 -9.5l40 -16q8 -3 18.5 -7.5q10.5 -4.5 22.5 -4.5q32 0 48 38z" />
<glyph unicode="&#210;" horiz-adv-x="810" d="M406 682q158 0 258 -97q48 -46 76 -110q28 -64 28 -142q0 -67 -25 -132q-25 -65 -79 -118q-47 -45 -110 -71.5q-63 -26.5 -148 -26.5q-47 0 -86.5 8.5q-39.5 8.5 -71.5 22.5q-32 14 -57.5 31.5q-25.5 17.5 -44.5 35.5q-48 45 -76 109.5q-28 64.5 -28 138.5q0 36 7.5 71.5q7.5 35.5 21.5 68.5q14 33 32.5 61.5q18.5 28.5 41.5 51.5q17 17 41 34.5q24 17.5 56.5 31.5q32.5 14 73 23q40.5 9 90.5 9zt0 0zM405 540q-44 0 -81.5 -15q-37.5 -15 -64.5 -42q-22 -21 -40.5 -58q-18.5 -37 -18.5 -93q0 -90 61 -150q32 -31 68 -43q36 -12 75 -12q51 0 87.5 16.5q36.5 16.5 60.5 40.5q20 19 39 55q19 36 19 94q0 52 -17.5 89.5q-17.5 37.5 -40.5 60.5q-25 24 -63 40.5q-38 16.5 -84 16.5zt0 0zM256 853l96 72l133 -148l-65 -53z" />
<glyph unicode="&#211;" horiz-adv-x="810" d="M406 682q158 0 258 -97q48 -46 76 -110q28 -64 28 -142q0 -67 -25 -132q-25 -65 -79 -118q-47 -45 -110 -71.5q-63 -26.5 -148 -26.5q-47 0 -86.5 8.5q-39.5 8.5 -71.5 22.5q-32 14 -57.5 31.5q-25.5 17.5 -44.5 35.5q-48 45 -76 109.5q-28 64.5 -28 138.5q0 36 7.5 71.5q7.5 35.5 21.5 68.5q14 33 32.5 61.5q18.5 28.5 41.5 51.5q17 17 41 34.5q24 17.5 56.5 31.5q32.5 14 73 23q40.5 9 90.5 9zt0 0zM405 540q-44 0 -81.5 -15q-37.5 -15 -64.5 -42q-22 -21 -40.5 -58q-18.5 -37 -18.5 -93q0 -90 61 -150q32 -31 68 -43q36 -12 75 -12q51 0 87.5 16.5q36.5 16.5 60.5 40.5q20 19 39 55q19 36 19 94q0 52 -17.5 89.5q-17.5 37.5 -40.5 60.5q-25 24 -63 40.5q-38 16.5 -84 16.5zt0 0zM555 853l-164 -129l-65 53l134 148z" />
<glyph unicode="&#212;" horiz-adv-x="810" d="M406 682q158 0 258 -97q48 -46 76 -110q28 -64 28 -142q0 -67 -25 -132q-25 -65 -79 -118q-47 -45 -110 -71.5q-63 -26.5 -148 -26.5q-47 0 -86.5 8.5q-39.5 8.5 -71.5 22.5q-32 14 -57.5 31.5q-25.5 17.5 -44.5 35.5q-48 45 -76 109.5q-28 64.5 -28 138.5q0 36 7.5 71.5q7.5 35.5 21.5 68.5q14 33 32.5 61.5q18.5 28.5 41.5 51.5q17 17 41 34.5q24 17.5 56.5 31.5q32.5 14 73 23q40.5 9 90.5 9zt0 0zM405 540q-44 0 -81.5 -15q-37.5 -15 -64.5 -42q-22 -21 -40.5 -58q-18.5 -37 -18.5 -93q0 -90 61 -150q32 -31 68 -43q36 -12 75 -12q51 0 87.5 16.5q36.5 16.5 60.5 40.5q20 19 39 55q19 36 19 94q0 52 -17.5 89.5q-17.5 37.5 -40.5 60.5q-25 24 -63 40.5q-38 16.5 -84 16.5zt0 0zM217 797l188 140l189 -140l-66 -71l-123 93l-124 -93z" />
<glyph unicode="&#213;" horiz-adv-x="810" d="M406 682q158 0 258 -97q48 -46 76 -110q28 -64 28 -142q0 -67 -25 -132q-25 -65 -79 -118q-47 -45 -110 -71.5q-63 -26.5 -148 -26.5q-47 0 -86.5 8.5q-39.5 8.5 -71.5 22.5q-32 14 -57.5 31.5q-25.5 17.5 -44.5 35.5q-48 45 -76 109.5q-28 64.5 -28 138.5q0 36 7.5 71.5q7.5 35.5 21.5 68.5q14 33 32.5 61.5q18.5 28.5 41.5 51.5q17 17 41 34.5q24 17.5 56.5 31.5q32.5 14 73 23q40.5 9 90.5 9zt0 0zM405 540q-44 0 -81.5 -15q-37.5 -15 -64.5 -42q-22 -21 -40.5 -58q-18.5 -37 -18.5 -93q0 -90 61 -150q32 -31 68 -43q36 -12 75 -12q51 0 87.5 16.5q36.5 16.5 60.5 40.5q20 19 39 55q19 36 19 94q0 52 -17.5 89.5q-17.5 37.5 -40.5 60.5q-25 24 -63 40.5q-38 16.5 -84 16.5zt0 0zM590 817q-16 -32 -42 -58q-12 -12 -28.5 -21.5q-16.5 -9.5 -42.5 -9.5q-16 0 -30.5 4.5q-14.5 4.5 -31.5 11.5l-41 16q-12 5 -20.5 8q-8.5 3 -16.5 3q-11 0 -23.5 -7q-12.5 -7 -22.5 -32l-71 50q5 11 15.5 29.5q10.5 18.5 21.5 29.5q16 17 34.5 23.5q18.5 6.5 38.5 6.5q19 0 33 -4.5q14 -4.5 27 -9.5l40 -16q8 -3 18.5 -7.5q10.5 -4.5 22.5 -4.5q32 0 48 38z" />
<glyph unicode="&#214;" horiz-adv-x="810" d="M406 682q158 0 258 -97q48 -46 76 -110q28 -64 28 -142q0 -67 -25 -132q-25 -65 -79 -118q-47 -45 -110 -71.5q-63 -26.5 -148 -26.5q-47 0 -86.5 8.5q-39.5 8.5 -71.5 22.5q-32 14 -57.5 31.5q-25.5 17.5 -44.5 35.5q-48 45 -76 109.5q-28 64.5 -28 138.5q0 36 7.5 71.5q7.5 35.5 21.5 68.5q14 33 32.5 61.5q18.5 28.5 41.5 51.5q17 17 41 34.5q24 17.5 56.5 31.5q32.5 14 73 23q40.5 9 90.5 9zt0 0zM405 540q-44 0 -81.5 -15q-37.5 -15 -64.5 -42q-22 -21 -40.5 -58q-18.5 -37 -18.5 -93q0 -90 61 -150q32 -31 68 -43q36 -12 75 -12q51 0 87.5 16.5q36.5 16.5 60.5 40.5q20 19 39 55q19 36 19 94q0 52 -17.5 89.5q-17.5 37.5 -40.5 60.5q-25 24 -63 40.5q-38 16.5 -84 16.5zt0 0zM217 811q0 32 23.5 55.5q23.5 23.5 55.5 23.5q32 0 55.5 -23.5q23.5 -23.5 23.5 -55.5q0 -32 -23.5 -55.5q-23.5 -23.5 -55.5 -23.5q-32 0 -55.5 23.5q-23.5 23.5 -23.5 55.5zt0 0zM435 811q0 32 23.5 55.5q23.5 23.5 55.5 23.5q32 0 55.5 -23.5q23.5 -23.5 23.5 -55.5q0 -32 -23.5 -55.5q-23.5 -23.5 -55.5 -23.5q-32 0 -55.5 23.5t-23.5 55.5z" />
<glyph unicode="&#215;" horiz-adv-x="500" d="M165 336l-118 119l87 87l118 -119l118 119l84 -84l-118 -118l118 -119l-87 -87l-118 119l-119 -118l-83 83z" />
<glyph unicode="&#216;" horiz-adv-x="822" d="M118 122q-30 38 -50 88.5q-20 50.5 -20 116.5q0 77 29 144.5q29 67.5 74 112.5q31 31 64 50q33 19 67 29.5q34 10.5 67 14.5q33 4 63 4q57 0 107.5 -12.5q50.5 -12.5 101.5 -45.5l88 88l83 -80l-87 -87q31 -42 50 -92.5q19 -50.5 19 -116.5q0 -82 -29.5 -145.5q-29.5 -63.5 -74.5 -107.5q-32 -31 -65.5 -50q-33.5 -19 -67 -29.5q-33.5 -10.5 -65.5 -14.5q-32 -4 -60 -4q-59 0 -109.5 13.5q-50.5 13.5 -100.5 45.5l-89 -89l-83 80zM512 516q-17 8 -42.5 16q-25.5 8 -58.5 8q-45 0 -82 -15q-37 -15 -64 -42q-22 -22 -40.5 -58.5q-18.5 -36.5 -18.5 -94.5q0 -27 5 -50q5 -23 18 -47zM309 151q21 -11 45.5 -17.5q24.5 -6.5 55.5 -6.5q58 0 94 19.5q36 19.5 54 37.5q35 34 46.5 74.5q11.5 40.5 11.5 80.5q0 26 -4.5 48q-4.5 22 -18.5 47z" />
<glyph unicode="&#217;" horiz-adv-x="710" d="M637 272q0 -24 -2.5 -50.5q-2.5 -26.5 -10 -53.5q-7.5 -27 -22 -54.5q-14.5 -27.5 -39.5 -52.5q-24 -25 -49.5 -40q-25.5 -15 -52 -23q-26.5 -8 -53.5 -10.5q-27 -2.5 -53 -2.5q-26 0 -53 2.5q-27 2.5 -53.5 10.5q-26.5 8 -52 23q-25.5 15 -49.5 40q-25 25 -39.5 52.5q-14.5 27.5 -22 54.5q-7.5 27 -10 53.5q-2.5 26.5 -2.5 50.5v395h154v-391q0 -22 5 -54q5 -32 30 -58q20 -22 45.5 -28.5q25.5 -6.5 47.5 -6.5q22 0 47.5 6.5q25.5 6.5 45.5 28.5q25 26 30 58q5 32 5 54v391h154zM206 853l96 72l133 -148l-65 -53z" />
<glyph unicode="&#218;" horiz-adv-x="710" d="M637 272q0 -24 -2.5 -50.5q-2.5 -26.5 -10 -53.5q-7.5 -27 -22 -54.5q-14.5 -27.5 -39.5 -52.5q-24 -25 -49.5 -40q-25.5 -15 -52 -23q-26.5 -8 -53.5 -10.5q-27 -2.5 -53 -2.5q-26 0 -53 2.5q-27 2.5 -53.5 10.5q-26.5 8 -52 23q-25.5 15 -49.5 40q-25 25 -39.5 52.5q-14.5 27.5 -22 54.5q-7.5 27 -10 53.5q-2.5 26.5 -2.5 50.5v395h154v-391q0 -22 5 -54q5 -32 30 -58q20 -22 45.5 -28.5q25.5 -6.5 47.5 -6.5q22 0 47.5 6.5q25.5 6.5 45.5 28.5q25 26 30 58q5 32 5 54v391h154zM505 853l-164 -129l-65 53l134 148z" />
<glyph unicode="&#219;" horiz-adv-x="710" d="M637 272q0 -24 -2.5 -50.5q-2.5 -26.5 -10 -53.5q-7.5 -27 -22 -54.5q-14.5 -27.5 -39.5 -52.5q-24 -25 -49.5 -40q-25.5 -15 -52 -23q-26.5 -8 -53.5 -10.5q-27 -2.5 -53 -2.5q-26 0 -53 2.5q-27 2.5 -53.5 10.5q-26.5 8 -52 23q-25.5 15 -49.5 40q-25 25 -39.5 52.5q-14.5 27.5 -22 54.5q-7.5 27 -10 53.5q-2.5 26.5 -2.5 50.5v395h154v-391q0 -22 5 -54q5 -32 30 -58q20 -22 45.5 -28.5q25.5 -6.5 47.5 -6.5q22 0 47.5 6.5q25.5 6.5 45.5 28.5q25 26 30 58q5 32 5 54v391h154zM167 797l188 140l189 -140l-66 -71l-123 93l-124 -93z" />
<glyph unicode="&#220;" horiz-adv-x="710" d="M637 272q0 -24 -2.5 -50.5q-2.5 -26.5 -10 -53.5q-7.5 -27 -22 -54.5q-14.5 -27.5 -39.5 -52.5q-24 -25 -49.5 -40q-25.5 -15 -52 -23q-26.5 -8 -53.5 -10.5q-27 -2.5 -53 -2.5q-26 0 -53 2.5q-27 2.5 -53.5 10.5q-26.5 8 -52 23q-25.5 15 -49.5 40q-25 25 -39.5 52.5q-14.5 27.5 -22 54.5q-7.5 27 -10 53.5q-2.5 26.5 -2.5 50.5v395h154v-391q0 -22 5 -54q5 -32 30 -58q20 -22 45.5 -28.5q25.5 -6.5 47.5 -6.5q22 0 47.5 6.5q25.5 6.5 45.5 28.5q25 26 30 58q5 32 5 54v391h154zM167 811q0 32 23.5 55.5q23.5 23.5 55.5 23.5q32 0 55.5 -23.5q23.5 -23.5 23.5 -55.5q0 -32 -23.5 -55.5q-23.5 -23.5 -55.5 -23.5q-32 0 -55.5 23.5q-23.5 23.5 -23.5 55.5zt0 0zM385 811q0 32 23.5 55.5q23.5 23.5 55.5 23.5q32 0 55.5 -23.5q23.5 -23.5 23.5 -55.5q0 -32 -23.5 -55.5q-23.5 -23.5 -55.5 -23.5q-32 0 -55.5 23.5t-23.5 55.5z" />
<glyph unicode="&#221;" horiz-adv-x="632" d="M239 311l-239 356h182l134 -207l134 207h182l-239 -356v-311h-154zM476 853l-164 -129l-65 53l134 148z" />
<glyph unicode="&#222;" horiz-adv-x="572" d="M227 667v-92h79q42 0 89.5 -10q47.5 -10 87.5 -45q21 -19 34 -40q13 -21 20 -42.5q7 -21.5 9 -41q2 -19.5 2 -35.5q0 -65 -19.5 -103.5q-19.5 -38.5 -37.5 -56.5q-20 -20 -43 -32q-23 -12 -46 -18q-23 -6 -44.5 -7.5q-21.5 -1.5 -38.5 -1.5h-92v-142h-154v667zM227 268h53q20 0 44 4q24 4 41 21q11 11 18 27.5q7 16.5 7 38.5q0 21 -7 37.5q-7 16.5 -18 27.5q-17 17 -42.5 21q-25.5 4 -45.5 4l-50 0z" />
<glyph unicode="&#223;" horiz-adv-x="585" d="M60 0v510q0 20 1.5 42q1.5 22 7.5 44q6 22 17 43.5q11 21.5 29 40.5q9 10 23.5 20.5q14.5 10.5 34.5 19.5q20 9 46.5 14.5q26.5 5.5 60.5 5.5q33 0 59 -5q26 -5 46 -13q20 -8 35 -18q15 -10 25 -20q20 -20 36.5 -53q16.5 -33 16.5 -83q0 -24 -6 -47.5q-6 -23.5 -21 -46.5q-14 -20 -29 -30.5q-15 -10.5 -26 -15.5q31 -10 56 -28q25 -18 41 -39q18 -24 28 -57q10 -33 10 -68q0 -42 -16 -87q-16 -45 -50 -78q-24 -23 -51.5 -36q-27.5 -13 -55.5 -19.5q-28 -6.5 -55 -8q-27 -1.5 -50 -1.5h-6v124q23 0 51 6.5q28 6.5 47 23.5q14 13 24 34.5q10 21.5 10 46.5q0 24 -8 44q-8 20 -22 34q-19 19 -47.5 28q-28.5 9 -54.5 9l0 122q17 0 36.5 4.5q19.5 4.5 33.5 16.5q11 10 18 26q7 16 7 34q0 17 -6 31.5q-6 14.5 -15 23.5q-10 10 -25 16q-15 6 -32 6q-15 0 -30.5 -6q-15.5 -6 -26.5 -18q-17 -18 -20 -40q-3 -22 -3 -42l0 -510z" />
<glyph unicode="&#224;" horiz-adv-x="598" d="M398 446h144v-446h-144v54q-15 -23 -32 -36.5q-17 -13.5 -34.5 -20.5q-17.5 -7 -34.5 -9.5q-17 -2.5 -31 -2.5q-48 0 -89 14.5q-41 14.5 -78 53.5q-35 38 -50 80q-15 42 -15 87q0 57 19 103q19 46 50 77q29 29 68.5 45q39.5 16 86.5 16q14 0 32 -2.5q18 -2.5 37 -9q19 -6.5 37.5 -19.5q18.5 -13 33.5 -34zM294 337q-23 0 -44 -9q-21 -9 -35 -23q-11 -11 -22 -31q-11 -20 -11 -50q0 -30 10 -49.5q10 -19.5 20 -30.5q15 -16 37 -25.5q22 -9.5 48 -9.5q22 0 41.5 8.5q19.5 8.5 33.5 22.5q14 14 24.5 34.5q10.5 20.5 10.5 49.5q0 24 -8.5 45.5q-8.5 21.5 -24.5 36.5q-17 16 -38.5 23.5q-21.5 7.5 -41.5 7.5zt0 0zM163 650l95 65l122 -152l-65 -48z" />
<glyph unicode="&#225;" horiz-adv-x="598" d="M398 446h144v-446h-144v54q-15 -23 -32 -36.5q-17 -13.5 -34.5 -20.5q-17.5 -7 -34.5 -9.5q-17 -2.5 -31 -2.5q-48 0 -89 14.5q-41 14.5 -78 53.5q-35 38 -50 80q-15 42 -15 87q0 57 19 103q19 46 50 77q29 29 68.5 45q39.5 16 86.5 16q14 0 32 -2.5q18 -2.5 37 -9q19 -6.5 37.5 -19.5q18.5 -13 33.5 -34zM294 337q-23 0 -44 -9q-21 -9 -35 -23q-11 -11 -22 -31q-11 -20 -11 -50q0 -30 10 -49.5q10 -19.5 20 -30.5q15 -16 37 -25.5q22 -9.5 48 -9.5q22 0 41.5 8.5q19.5 8.5 33.5 22.5q14 14 24.5 34.5q10.5 20.5 10.5 49.5q0 24 -8.5 45.5q-8.5 21.5 -24.5 36.5q-17 16 -38.5 23.5q-21.5 7.5 -41.5 7.5zt0 0zM441 650l-152 -135l-65 48l123 152z" />
<glyph unicode="&#226;" horiz-adv-x="598" d="M398 446h144v-446h-144v54q-15 -23 -32 -36.5q-17 -13.5 -34.5 -20.5q-17.5 -7 -34.5 -9.5q-17 -2.5 -31 -2.5q-48 0 -89 14.5q-41 14.5 -78 53.5q-35 38 -50 80q-15 42 -15 87q0 57 19 103q19 46 50 77q29 29 68.5 45q39.5 16 86.5 16q14 0 32 -2.5q18 -2.5 37 -9q19 -6.5 37.5 -19.5q18.5 -13 33.5 -34zM294 337q-23 0 -44 -9q-21 -9 -35 -23q-11 -11 -22 -31q-11 -20 -11 -50q0 -30 10 -49.5q10 -19.5 20 -30.5q15 -16 37 -25.5q22 -9.5 48 -9.5q22 0 41.5 8.5q19.5 8.5 33.5 22.5q14 14 24.5 34.5q10.5 20.5 10.5 49.5q0 24 -8.5 45.5q-8.5 21.5 -24.5 36.5q-17 16 -38.5 23.5q-21.5 7.5 -41.5 7.5zt0 0zM180 515l-64 69l183 142l184 -142l-66 -69l-118 95z" />
<glyph unicode="&#227;" horiz-adv-x="598" d="M398 446h144v-446h-144v54q-15 -23 -32 -36.5q-17 -13.5 -34.5 -20.5q-17.5 -7 -34.5 -9.5q-17 -2.5 -31 -2.5q-48 0 -89 14.5q-41 14.5 -78 53.5q-35 38 -50 80q-15 42 -15 87q0 57 19 103q19 46 50 77q29 29 68.5 45q39.5 16 86.5 16q14 0 32 -2.5q18 -2.5 37 -9q19 -6.5 37.5 -19.5q18.5 -13 33.5 -34zM294 337q-23 0 -44 -9q-21 -9 -35 -23q-11 -11 -22 -31q-11 -20 -11 -50q0 -30 10 -49.5q10 -19.5 20 -30.5q15 -16 37 -25.5q22 -9.5 48 -9.5q22 0 41.5 8.5q19.5 8.5 33.5 22.5q14 14 24.5 34.5q10.5 20.5 10.5 49.5q0 24 -8.5 45.5q-8.5 21.5 -24.5 36.5q-17 16 -38.5 23.5q-21.5 7.5 -41.5 7.5zt0 0zM470 613q-6 -15 -17 -33.5q-11 -18.5 -22 -29.5q-14 -14 -32 -22q-18 -8 -38 -8q-6 0 -19.5 2.5q-13.5 2.5 -39.5 11.5l-35 13q-33 13 -49 13q-29 0 -43 -37l-65 44q5 15 13.5 32.5q8.5 17.5 20.5 30.5q27 30 71 30q17 0 32.5 -4q15.5 -4 29.5 -9l34 -13q28 -11 39.5 -12.5q11.5 -1.5 13.5 -1.5q20 0 29 13.5q9 13.5 11 23.5z" />
<glyph unicode="&#228;" horiz-adv-x="598" d="M398 446h144v-446h-144v54q-15 -23 -32 -36.5q-17 -13.5 -34.5 -20.5q-17.5 -7 -34.5 -9.5q-17 -2.5 -31 -2.5q-48 0 -89 14.5q-41 14.5 -78 53.5q-35 38 -50 80q-15 42 -15 87q0 57 19 103q19 46 50 77q29 29 68.5 45q39.5 16 86.5 16q14 0 32 -2.5q18 -2.5 37 -9q19 -6.5 37.5 -19.5q18.5 -13 33.5 -34zM294 337q-23 0 -44 -9q-21 -9 -35 -23q-11 -11 -22 -31q-11 -20 -11 -50q0 -30 10 -49.5q10 -19.5 20 -30.5q15 -16 37 -25.5q22 -9.5 48 -9.5q22 0 41.5 8.5q19.5 8.5 33.5 22.5q14 14 24.5 34.5q10.5 20.5 10.5 49.5q0 24 -8.5 45.5q-8.5 21.5 -24.5 36.5q-17 16 -38.5 23.5q-21.5 7.5 -41.5 7.5zt0 0zM329 599q0 32 23.5 55.5q23.5 23.5 55.5 23.5q32 0 55.5 -23.5q23.5 -23.5 23.5 -55.5q0 -32 -23.5 -55.5q-23.5 -23.5 -55.5 -23.5q-32 0 -55.5 23.5q-23.5 23.5 -23.5 55.5zt0 0zM111 599q0 32 23.5 55.5q23.5 23.5 55.5 23.5q32 0 55.5 -23.5q23.5 -23.5 23.5 -55.5q0 -32 -23.5 -55.5q-23.5 -23.5 -55.5 -23.5q-32 0 -55.5 23.5t-23.5 55.5z" />
<glyph unicode="&#229;" horiz-adv-x="598" d="M398 446h144v-446h-144v54q-15 -23 -32 -36.5q-17 -13.5 -34.5 -20.5q-17.5 -7 -34.5 -9.5q-17 -2.5 -31 -2.5q-48 0 -89 14.5q-41 14.5 -78 53.5q-35 38 -50 80q-15 42 -15 87q0 57 19 103q19 46 50 77q29 29 68.5 45q39.5 16 86.5 16q14 0 32 -2.5q18 -2.5 37 -9q19 -6.5 37.5 -19.5q18.5 -13 33.5 -34zM294 337q-23 0 -44 -9q-21 -9 -35 -23q-11 -11 -22 -31q-11 -20 -11 -50q0 -30 10 -49.5q10 -19.5 20 -30.5q15 -16 37 -25.5q22 -9.5 48 -9.5q22 0 41.5 8.5q19.5 8.5 33.5 22.5q14 14 24.5 34.5q10.5 20.5 10.5 49.5q0 24 -8.5 45.5q-8.5 21.5 -24.5 36.5q-17 16 -38.5 23.5q-21.5 7.5 -41.5 7.5zt0 0zM413 614q0 -23 -8 -38.5q-8 -15.5 -19 -26.5q-13 -12 -34.5 -21.5q-21.5 -9.5 -52.5 -9.5q-31 0 -52.5 9.5q-21.5 9.5 -34.5 21.5q-11 11 -19 26.5q-8 15.5 -8 38.5q0 23 8 38.5q8 15.5 19 26.5q13 12 34.5 21.5q21.5 9.5 52.5 9.5q31 0 52.5 -9.5q21.5 -9.5 34.5 -21.5q11 -11 19 -26.5q8 -15.5 8 -38.5zt0 0zM299 650q-8 0 -16.5 -2q-8.5 -2 -14.5 -7q-5 -5 -9 -12q-4 -7 -4 -15q0 -8 4 -15q4 -7 9 -12q6 -5 14.5 -7q8.5 -2 16.5 -2q8 0 16.5 2q8.5 2 14.5 7q5 5 9 12q4 7 4 15q0 8 -4 15q-4 7 -9 12q-6 5 -14.5 7t-16.5 2z" />
<glyph unicode="&#230;" horiz-adv-x="840" d="M801 135q-9 -26 -21 -46q-12 -20 -24.5 -34q-12.5 -14 -24 -23q-11.5 -9 -17.5 -13q-32 -21 -66.5 -27.5q-34.5 -6.5 -69.5 -6.5q-8 0 -20.5 0.5q-12.5 0.5 -28 2.5q-15.5 2 -31.5 6q-16 4 -29 11q-17 8 -34.5 23.5q-17.5 15.5 -29.5 29.5q-16 -21 -34 -34.5q-18 -13.5 -41 -22.5q-27 -11 -52.5 -13.5q-25.5 -2.5 -54.5 -2.5q-37 0 -77.5 8.5q-40.5 8.5 -72.5 40.5q-18 18 -28.5 43q-10.5 25 -10.5 57q0 26 8 49q8 23 29 44q23 23 61.5 37.5q38.5 14.5 95.5 14.5q38 0 62 -8q24 -8 43 -19l0 9q0 19 -7.5 37q-7.5 18 -18.5 29q-13 13 -35.5 20.5q-22.5 7.5 -51.5 7.5q-24 0 -55 -6q-31 -6 -60 -16l0 110q35 10 68 14q33 4 63 4q36 0 62.5 -6q26.5 -6 46 -16.5q19.5 -10.5 33 -24.5q13.5 -14 23.5 -30q19 24 41.5 39.5q22.5 15.5 45.5 23.5q23 8 45 11q22 3 39 3q60 0 103.5 -19.5q43.5 -19.5 70.5 -48.5q21 -23 33 -48q12 -25 18 -49.5q6 -24.5 7.5 -46.5q1.5 -22 1.5 -37v-14h-326q1 -23 9 -43q8 -20 21 -34q15 -17 34 -22.5q19 -5.5 39 -5.5q10 0 23.5 2q13.5 2 27.5 10q8 5 17 14q9 9 15 25zM247 191q-21 0 -38 -6q-17 -6 -28 -17q-13 -13 -13 -31q0 -17 13 -31q11 -11 29 -17q18 -6 36 -6q16 0 36.5 5q20.5 5 33.5 18q5 5 9 12.5q4 7.5 4 18.5q0 17 -13 31q-13 13 -32.5 18q-19.5 5 -36.5 5zt0 0zM671 284q-6 33 -29 54q-16 14 -33.5 18.5q-17.5 4.5 -30.5 4.5q-17 0 -32.5 -4q-15.5 -4 -29.5 -17q-12 -11 -20 -26.5q-8 -15.5 -12 -29.5z" />
<glyph unicode="&#231;" horiz-adv-x="431" d="M391 305q-26 22 -51.5 28q-25.5 6 -42.5 6q-34 0 -54 -12q-20 -12 -28 -20q-14 -14 -23.5 -35.5q-9.5 -21.5 -9.5 -48.5q0 -25 8 -45.5q8 -20.5 22 -34.5q17 -18 40 -27q23 -9 47 -9q19 0 43 7q24 7 49 28l0 -130q-29 -16 -56.5 -21.5q-27.5 -5.5 -57.5 -5.5q-57 0 -99.5 18.5q-42.5 18.5 -73.5 48.5q-26 25 -48 67q-22 42 -22 103q0 57 21 101.5q21 44.5 53 74.5q38 35 81 49q43 14 89 14q29 0 56.5 -5.5q27.5 -5.5 56.5 -19.5zM349 -90l-118 -146l-74 40l98 150z" />
<glyph unicode="&#232;" horiz-adv-x="547" d="M380 284q-1 3 -7 20q-6 17 -22 32q-12 11 -29 18q-17 7 -39 7q-28 0 -45 -9q-17 -9 -28 -20q-8 -9 -15 -21q-7 -12 -10 -27zM513 198h-333q0 -18 6.5 -39.5q6.5 -21.5 20.5 -36.5q17 -18 37 -23q20 -5 37 -5q16 0 31.5 3q15.5 3 26.5 10q2 1 12 9.5q10 8.5 19 27.5l136 -14q-8 -24 -18.5 -42q-10.5 -18 -22.5 -31.5q-12 -13.5 -23.5 -23q-11.5 -9.5 -21.5 -15.5q-32 -20 -67.5 -26.5q-35.5 -6.5 -73.5 -6.5q-51 0 -95 12.5q-44 12.5 -83 51.5q-29 29 -48 72.5q-19 43.5 -19 99.5q0 48 17 94.5q17 46.5 51 81.5q20 20 42.5 32.5q22.5 12.5 44.5 19.5q22 7 43.5 9.5q21.5 2.5 40.5 2.5q19 0 41 -2.5q22 -2.5 45.5 -9.5q23.5 -7 46.5 -20q23 -13 44 -35q20 -21 32.5 -44q12.5 -23 19 -46.5q6.5 -23.5 9 -46.5q2.5 -23 2.5 -44zM153 650l95 65l122 -152l-65 -48z" />
<glyph unicode="&#233;" horiz-adv-x="547" d="M380 284q-1 3 -7 20q-6 17 -22 32q-12 11 -29 18q-17 7 -39 7q-28 0 -45 -9q-17 -9 -28 -20q-8 -9 -15 -21q-7 -12 -10 -27zM513 198h-333q0 -18 6.5 -39.5q6.5 -21.5 20.5 -36.5q17 -18 37 -23q20 -5 37 -5q16 0 31.5 3q15.5 3 26.5 10q2 1 12 9.5q10 8.5 19 27.5l136 -14q-8 -24 -18.5 -42q-10.5 -18 -22.5 -31.5q-12 -13.5 -23.5 -23q-11.5 -9.5 -21.5 -15.5q-32 -20 -67.5 -26.5q-35.5 -6.5 -73.5 -6.5q-51 0 -95 12.5q-44 12.5 -83 51.5q-29 29 -48 72.5q-19 43.5 -19 99.5q0 48 17 94.5q17 46.5 51 81.5q20 20 42.5 32.5q22.5 12.5 44.5 19.5q22 7 43.5 9.5q21.5 2.5 40.5 2.5q19 0 41 -2.5q22 -2.5 45.5 -9.5q23.5 -7 46.5 -20q23 -13 44 -35q20 -21 32.5 -44q12.5 -23 19 -46.5q6.5 -23.5 9 -46.5q2.5 -23 2.5 -44zM421 650l-152 -135l-65 48l123 152z" />
<glyph unicode="&#234;" horiz-adv-x="547" d="M380 284q-1 3 -7 20q-6 17 -22 32q-12 11 -29 18q-17 7 -39 7q-28 0 -45 -9q-17 -9 -28 -20q-8 -9 -15 -21q-7 -12 -10 -27zM513 198h-333q0 -18 6.5 -39.5q6.5 -21.5 20.5 -36.5q17 -18 37 -23q20 -5 37 -5q16 0 31.5 3q15.5 3 26.5 10q2 1 12 9.5q10 8.5 19 27.5l136 -14q-8 -24 -18.5 -42q-10.5 -18 -22.5 -31.5q-12 -13.5 -23.5 -23q-11.5 -9.5 -21.5 -15.5q-32 -20 -67.5 -26.5q-35.5 -6.5 -73.5 -6.5q-51 0 -95 12.5q-44 12.5 -83 51.5q-29 29 -48 72.5q-19 43.5 -19 99.5q0 48 17 94.5q17 46.5 51 81.5q20 20 42.5 32.5q22.5 12.5 44.5 19.5q22 7 43.5 9.5q21.5 2.5 40.5 2.5q19 0 41 -2.5q22 -2.5 45.5 -9.5q23.5 -7 46.5 -20q23 -13 44 -35q20 -21 32.5 -44q12.5 -23 19 -46.5q6.5 -23.5 9 -46.5q2.5 -23 2.5 -44zM154 515l-64 69l183 142l184 -142l-66 -69l-118 95z" />
<glyph unicode="&#235;" horiz-adv-x="547" d="M380 284q-1 3 -7 20q-6 17 -22 32q-12 11 -29 18q-17 7 -39 7q-28 0 -45 -9q-17 -9 -28 -20q-8 -9 -15 -21q-7 -12 -10 -27zM513 198h-333q0 -18 6.5 -39.5q6.5 -21.5 20.5 -36.5q17 -18 37 -23q20 -5 37 -5q16 0 31.5 3q15.5 3 26.5 10q2 1 12 9.5q10 8.5 19 27.5l136 -14q-8 -24 -18.5 -42q-10.5 -18 -22.5 -31.5q-12 -13.5 -23.5 -23q-11.5 -9.5 -21.5 -15.5q-32 -20 -67.5 -26.5q-35.5 -6.5 -73.5 -6.5q-51 0 -95 12.5q-44 12.5 -83 51.5q-29 29 -48 72.5q-19 43.5 -19 99.5q0 48 17 94.5q17 46.5 51 81.5q20 20 42.5 32.5q22.5 12.5 44.5 19.5q22 7 43.5 9.5q21.5 2.5 40.5 2.5q19 0 41 -2.5q22 -2.5 45.5 -9.5q23.5 -7 46.5 -20q23 -13 44 -35q20 -21 32.5 -44q12.5 -23 19 -46.5q6.5 -23.5 9 -46.5q2.5 -23 2.5 -44zM303 599q0 32 23.5 55.5q23.5 23.5 55.5 23.5q32 0 55.5 -23.5q23.5 -23.5 23.5 -55.5q0 -32 -23.5 -55.5q-23.5 -23.5 -55.5 -23.5q-32 0 -55.5 23.5q-23.5 23.5 -23.5 55.5zt0 0zM85 599q0 32 23.5 55.5q23.5 23.5 55.5 23.5q32 0 55.5 -23.5q23.5 -23.5 23.5 -55.5q0 -32 -23.5 -55.5q-23.5 -23.5 -55.5 -23.5q-32 0 -55.5 23.5t-23.5 55.5z" />
<glyph unicode="&#236;" horiz-adv-x="276" d="M210 446v-446h-144v446zM6 650l96 65l102 -152l-65 -48z" />
<glyph unicode="&#237;" horiz-adv-x="276" d="M210 446v-446h-144v446zM269 650l-132 -135l-65 48l103 152z" />
<glyph unicode="&#238;" horiz-adv-x="276" d="M210 446v-446h-144v446zM44 515l-65 69l159 142l159 -142l-66 -69l-93 87z" />
<glyph unicode="&#239;" horiz-adv-x="276" d="M210 446v-446h-144v446zM161 599q0 19 6.5 34q6.5 15 17 25q10.5 10 23 15q12.5 5 24.5 5q29 0 50 -23.5q21 -23.5 21 -55.5q0 -32 -21 -55.5q-21 -23.5 -50 -23.5q-12 0 -24.5 5q-12.5 5 -23 15q-10.5 10 -17 24.5q-6.5 14.5 -6.5 34.5zt0 0zM-27 599q0 32 21 55.5q21 23.5 50 23.5q12 0 24.5 -5q12.5 -5 23 -15q10.5 -10 17 -25q6.5 -15 6.5 -34q0 -20 -6.5 -34.5q-6.5 -14.5 -17 -24.5q-10.5 -10 -23 -15q-12.5 -5 -24.5 -5q-29 0 -50 23.5t-21 55.5z" />
<glyph unicode="&#240;" horiz-adv-x="580" d="M107 692q46 -1 82 -6.5q36 -5.5 63.5 -13q27.5 -7.5 48 -16.5q20.5 -9 36.5 -17l151 60l35 -72l-109 -43q29 -24 53 -55q24 -31 41 -73q18 -44 25 -86q7 -42 7 -87q0 -26 -3 -56.5q-3 -30.5 -11.5 -61.5q-8.5 -31 -24.5 -61q-16 -30 -41 -55q-21 -21 -43.5 -33.5q-22.5 -12.5 -45 -19q-22.5 -6.5 -44.5 -9q-22 -2.5 -41 -2.5q-48 0 -93 13.5q-45 13.5 -87 52.5q-44 42 -58 87.5q-14 45.5 -14 84.5q0 51 17.5 90.5q17.5 39.5 41.5 64.5q26 28 67.5 46.5q41.5 18.5 101.5 18.5q44 0 74 -11q30 -11 58 -36q-9 50 -37 84q-12 15 -29 29q-17 14 -34 24l-197 -85l-32 69l143 60q-64 21 -137 19zM286 327q-22 0 -41 -8q-19 -8 -32 -21q-14 -14 -22.5 -34.5q-8.5 -20.5 -8.5 -46.5q0 -26 8.5 -46.5q8.5 -20.5 22.5 -34.5q13 -13 32 -21q19 -8 41 -8q22 0 41 8q19 8 32 21q14 14 22.5 34.5q8.5 20.5 8.5 46.5q0 26 -8.5 46.5q-8.5 20.5 -22.5 34.5q-13 13 -32 21t-41 8z" />
<glyph unicode="&#241;" horiz-adv-x="567" d="M56 446h144v-53q33 42 69.5 53.5q36.5 11.5 68.5 11.5q29 0 64 -8q35 -8 64 -37q16 -16 25 -33.5q9 -17.5 13.5 -34.5q4.5 -17 5.5 -33.5q1 -16.5 1 -29.5v-282h-144v229q0 22 -3.5 47q-3.5 25 -20.5 42q-8 8 -21.5 14q-13.5 6 -33.5 6q-23 0 -37.5 -7.5q-14.5 -7.5 -22.5 -16.5q-18 -18 -23 -40.5q-5 -22.5 -5 -44.5v-229h-144zM470 613q-6 -15 -17 -33.5q-11 -18.5 -22 -29.5q-14 -14 -32 -22q-18 -8 -38 -8q-6 0 -19.5 2.5q-13.5 2.5 -39.5 11.5l-35 13q-33 13 -49 13q-29 0 -43 -37l-65 44q5 15 13.5 32.5q8.5 17.5 20.5 30.5q27 30 71 30q17 0 32.5 -4q15.5 -4 29.5 -9l34 -13q28 -11 39.5 -12.5q11.5 -1.5 13.5 -1.5q20 0 29 13.5q9 13.5 11 23.5z" />
<glyph unicode="&#242;" horiz-adv-x="592" d="M558 223q0 -43 -16.5 -87.5q-16.5 -44.5 -50.5 -78.5q-30 -30 -79.5 -51q-49.5 -21 -115.5 -21q-66 0 -115.5 21q-49.5 21 -79.5 51q-34 34 -50.5 78.5q-16.5 44.5 -16.5 87.5q0 43 16.5 87.5q16.5 44.5 50.5 78.5q30 30 79.5 51q49.5 21 115.5 21q66 0 115.5 -21q49.5 -21 79.5 -51q34 -34 50.5 -78.5q16.5 -44.5 16.5 -87.5zt0 0zM296 339q-49 0 -81 -32q-16 -16 -24.5 -36.5q-8.5 -20.5 -8.5 -47.5q0 -31 10 -51q10 -20 23 -33q14 -14 33.5 -23q19.5 -9 48.5 -9q48 0 80 32q16 16 24.5 36.5q8.5 20.5 8.5 47.5q0 27 -8.5 47.5q-8.5 20.5 -24.5 36.5q-32 32 -81 32zt0 0zM128 650l95 65l122 -152l-65 -48z" />
<glyph unicode="&#243;" horiz-adv-x="592" d="M558 223q0 -43 -16.5 -87.5q-16.5 -44.5 -50.5 -78.5q-30 -30 -79.5 -51q-49.5 -21 -115.5 -21q-66 0 -115.5 21q-49.5 21 -79.5 51q-34 34 -50.5 78.5q-16.5 44.5 -16.5 87.5q0 43 16.5 87.5q16.5 44.5 50.5 78.5q30 30 79.5 51q49.5 21 115.5 21q66 0 115.5 -21q49.5 -21 79.5 -51q34 -34 50.5 -78.5q16.5 -44.5 16.5 -87.5zt0 0zM296 339q-49 0 -81 -32q-16 -16 -24.5 -36.5q-8.5 -20.5 -8.5 -47.5q0 -31 10 -51q10 -20 23 -33q14 -14 33.5 -23q19.5 -9 48.5 -9q48 0 80 32q16 16 24.5 36.5q8.5 20.5 8.5 47.5q0 27 -8.5 47.5q-8.5 20.5 -24.5 36.5q-32 32 -81 32zt0 0zM441 650l-152 -135l-65 48l123 152z" />
<glyph unicode="&#244;" horiz-adv-x="592" d="M558 223q0 -43 -16.5 -87.5q-16.5 -44.5 -50.5 -78.5q-30 -30 -79.5 -51q-49.5 -21 -115.5 -21q-66 0 -115.5 21q-49.5 21 -79.5 51q-34 34 -50.5 78.5q-16.5 44.5 -16.5 87.5q0 43 16.5 87.5q16.5 44.5 50.5 78.5q30 30 79.5 51q49.5 21 115.5 21q66 0 115.5 -21q49.5 -21 79.5 -51q34 -34 50.5 -78.5q16.5 -44.5 16.5 -87.5zt0 0zM296 339q-49 0 -81 -32q-16 -16 -24.5 -36.5q-8.5 -20.5 -8.5 -47.5q0 -31 10 -51q10 -20 23 -33q14 -14 33.5 -23q19.5 -9 48.5 -9q48 0 80 32q16 16 24.5 36.5q8.5 20.5 8.5 47.5q0 27 -8.5 47.5q-8.5 20.5 -24.5 36.5q-32 32 -81 32zt0 0zM177 515l-64 69l183 142l184 -142l-66 -69l-118 95z" />
<glyph unicode="&#245;" horiz-adv-x="592" d="M558 223q0 -43 -16.5 -87.5q-16.5 -44.5 -50.5 -78.5q-30 -30 -79.5 -51q-49.5 -21 -115.5 -21q-66 0 -115.5 21q-49.5 21 -79.5 51q-34 34 -50.5 78.5q-16.5 44.5 -16.5 87.5q0 43 16.5 87.5q16.5 44.5 50.5 78.5q30 30 79.5 51q49.5 21 115.5 21q66 0 115.5 -21q49.5 -21 79.5 -51q34 -34 50.5 -78.5q16.5 -44.5 16.5 -87.5zt0 0zM296 339q-49 0 -81 -32q-16 -16 -24.5 -36.5q-8.5 -20.5 -8.5 -47.5q0 -31 10 -51q10 -20 23 -33q14 -14 33.5 -23q19.5 -9 48.5 -9q48 0 80 32q16 16 24.5 36.5q8.5 20.5 8.5 47.5q0 27 -8.5 47.5q-8.5 20.5 -24.5 36.5q-32 32 -81 32zt0 0zM478 613q-6 -15 -17 -33.5q-11 -18.5 -22 -29.5q-14 -14 -32 -22q-18 -8 -38 -8q-6 0 -19.5 2.5q-13.5 2.5 -39.5 11.5l-35 13q-33 13 -49 13q-29 0 -43 -37l-65 44q5 15 13.5 32.5q8.5 17.5 20.5 30.5q27 30 71 30q17 0 32.5 -4q15.5 -4 29.5 -9l34 -13q28 -11 39.5 -12.5q11.5 -1.5 13.5 -1.5q20 0 29 13.5q9 13.5 11 23.5z" />
<glyph unicode="&#246;" horiz-adv-x="592" d="M558 223q0 -43 -16.5 -87.5q-16.5 -44.5 -50.5 -78.5q-30 -30 -79.5 -51q-49.5 -21 -115.5 -21q-66 0 -115.5 21q-49.5 21 -79.5 51q-34 34 -50.5 78.5q-16.5 44.5 -16.5 87.5q0 43 16.5 87.5q16.5 44.5 50.5 78.5q30 30 79.5 51q49.5 21 115.5 21q66 0 115.5 -21q49.5 -21 79.5 -51q34 -34 50.5 -78.5q16.5 -44.5 16.5 -87.5zt0 0zM296 339q-49 0 -81 -32q-16 -16 -24.5 -36.5q-8.5 -20.5 -8.5 -47.5q0 -31 10 -51q10 -20 23 -33q14 -14 33.5 -23q19.5 -9 48.5 -9q48 0 80 32q16 16 24.5 36.5q8.5 20.5 8.5 47.5q0 27 -8.5 47.5q-8.5 20.5 -24.5 36.5q-32 32 -81 32zt0 0zM326 599q0 32 23.5 55.5q23.5 23.5 55.5 23.5q32 0 55.5 -23.5q23.5 -23.5 23.5 -55.5q0 -32 -23.5 -55.5q-23.5 -23.5 -55.5 -23.5q-32 0 -55.5 23.5q-23.5 23.5 -23.5 55.5zt0 0zM108 599q0 32 23.5 55.5q23.5 23.5 55.5 23.5q32 0 55.5 -23.5q23.5 -23.5 23.5 -55.5q0 -32 -23.5 -55.5q-23.5 -23.5 -55.5 -23.5q-32 0 -55.5 23.5t-23.5 55.5z" />
<glyph unicode="&#247;" horiz-adv-x="500" d="M33 398h434v-116h-434zM177 510q0 30 21.5 51.5q21.5 21.5 51.5 21.5q30 0 51.5 -21.5q21.5 -21.5 21.5 -51.5q0 -30 -21.5 -51.5q-21.5 -21.5 -51.5 -21.5q-30 0 -51.5 21.5q-21.5 21.5 -21.5 51.5zt0 0zM177 168q0 30 21.5 51.5q21.5 21.5 51.5 21.5q30 0 51.5 -21.5q21.5 -21.5 21.5 -51.5q0 -30 -21.5 -51.5q-21.5 -21.5 -51.5 -21.5q-30 0 -51.5 21.5t-21.5 51.5z" />
<glyph unicode="&#248;" horiz-adv-x="616" d="M519 377q23 -26 39.5 -62.5q16.5 -36.5 16.5 -89.5q0 -52 -19 -95.5q-19 -43.5 -48 -72.5q-30 -30 -79 -51q-49 -21 -118 -21q-39 0 -74.5 8q-35.5 8 -72.5 29l-77 -77l-53 50l74 74q-27 30 -42 67q-15 37 -15 85q0 31 6 57q6 26 16 47q10 21 22 37q12 16 23 27q35 34 84 53q49 19 111 19q46 0 82 -10q36 -10 67 -27l67 67l53 -51zM366 327q-14 7 -26.5 9.5q-12.5 2.5 -26.5 2.5q-50 0 -81 -32q-12 -12 -22.5 -32.5q-10.5 -20.5 -10.5 -51.5q0 -28 11 -52zM261 119q16 -8 29.5 -10q13.5 -2 23.5 -2q46 0 80 32q19 19 26 40q7 21 7 44q0 16 -2 27q-2 11 -9 24z" />
<glyph unicode="&#249;" horiz-adv-x="570" d="M200 446v-246q0 -15 4 -35.5q4 -20.5 21 -36.5q8 -7 22 -14q14 -7 38 -7q20 0 35.5 6q15.5 6 25.5 15q16 15 20 35q4 20 4 37v246h144v-260q0 -38 -8 -74q-8 -36 -42 -69q-19 -19 -42 -30.5q-23 -11.5 -47 -17.5q-24 -6 -47 -8q-23 -2 -43 -2q-21 0 -44.5 2q-23.5 2 -47 8q-23.5 6 -46.5 17.5q-23 11.5 -42 30.5q-31 30 -40 63.5q-9 33.5 -9 70.5v269zM117 650l95 65l122 -152l-65 -48z" />
<glyph unicode="&#250;" horiz-adv-x="570" d="M200 446v-246q0 -15 4 -35.5q4 -20.5 21 -36.5q8 -7 22 -14q14 -7 38 -7q20 0 35.5 6q15.5 6 25.5 15q16 15 20 35q4 20 4 37v246h144v-260q0 -38 -8 -74q-8 -36 -42 -69q-19 -19 -42 -30.5q-23 -11.5 -47 -17.5q-24 -6 -47 -8q-23 -2 -43 -2q-21 0 -44.5 2q-23.5 2 -47 8q-23.5 6 -46.5 17.5q-23 11.5 -42 30.5q-31 30 -40 63.5q-9 33.5 -9 70.5v269zM440 650l-152 -135l-65 48l123 152z" />
<glyph unicode="&#251;" horiz-adv-x="570" d="M200 446v-246q0 -15 4 -35.5q4 -20.5 21 -36.5q8 -7 22 -14q14 -7 38 -7q20 0 35.5 6q15.5 6 25.5 15q16 15 20 35q4 20 4 37v246h144v-260q0 -38 -8 -74q-8 -36 -42 -69q-19 -19 -42 -30.5q-23 -11.5 -47 -17.5q-24 -6 -47 -8q-23 -2 -43 -2q-21 0 -44.5 2q-23.5 2 -47 8q-23.5 6 -46.5 17.5q-23 11.5 -42 30.5q-31 30 -40 63.5q-9 33.5 -9 70.5v269zM166 515l-64 69l183 142l184 -142l-66 -69l-118 95z" />
<glyph unicode="&#252;" horiz-adv-x="570" d="M200 446v-246q0 -15 4 -35.5q4 -20.5 21 -36.5q8 -7 22 -14q14 -7 38 -7q20 0 35.5 6q15.5 6 25.5 15q16 15 20 35q4 20 4 37v246h144v-260q0 -38 -8 -74q-8 -36 -42 -69q-19 -19 -42 -30.5q-23 -11.5 -47 -17.5q-24 -6 -47 -8q-23 -2 -43 -2q-21 0 -44.5 2q-23.5 2 -47 8q-23.5 6 -46.5 17.5q-23 11.5 -42 30.5q-31 30 -40 63.5q-9 33.5 -9 70.5v269zM315 599q0 32 23.5 55.5q23.5 23.5 55.5 23.5q32 0 55.5 -23.5q23.5 -23.5 23.5 -55.5q0 -32 -23.5 -55.5q-23.5 -23.5 -55.5 -23.5q-32 0 -55.5 23.5q-23.5 23.5 -23.5 55.5zt0 0zM97 599q0 32 23.5 55.5q23.5 23.5 55.5 23.5q32 0 55.5 -23.5q23.5 -23.5 23.5 -55.5q0 -32 -23.5 -55.5q-23.5 -23.5 -55.5 -23.5q-32 0 -55.5 23.5t-23.5 55.5z" />
<glyph unicode="&#253;" horiz-adv-x="585" d="M215 57l-213 389h166l126 -242l123 242h162l-359 -675h-162zM448 650l-152 -135l-65 48l123 152z" />
<glyph unicode="&#254;" horiz-adv-x="598" d="M200 -229h-144v958h144v-336q18 23 37 36.5q19 13.5 37.5 20.5q18.5 7 35 9q16.5 2 29.5 2q60 0 98.5 -21q38.5 -21 59.5 -42q30 -30 48.5 -74.5q18.5 -44.5 18.5 -99.5q0 -58 -19 -102q-19 -44 -52 -77q-33 -33 -69.5 -46.5q-36.5 -13.5 -81.5 -13.5q-33 0 -57.5 7.5q-24.5 7.5 -41.5 18q-17 10.5 -27 21.5q-10 11 -16 19zM304 337q-30 0 -49.5 -11q-19.5 -11 -30.5 -22q-17 -17 -25.5 -39.5q-8.5 -22.5 -8.5 -42.5q0 -21 8 -41.5q8 -20.5 24 -37.5q16 -16 37.5 -25q21.5 -9 44.5 -9q20 0 40.5 8q20.5 8 36.5 23q17 17 26 40q9 23 9 45q0 25 -9.5 46q-9.5 21 -24.5 35q-33 31 -78 31z" />
<glyph unicode="&#255;" horiz-adv-x="585" d="M215 57l-213 389h166l126 -242l123 242h162l-359 -675h-162zM322 599q0 32 23.5 55.5q23.5 23.5 55.5 23.5q32 0 55.5 -23.5q23.5 -23.5 23.5 -55.5q0 -32 -23.5 -55.5q-23.5 -23.5 -55.5 -23.5q-32 0 -55.5 23.5q-23.5 23.5 -23.5 55.5zt0 0zM104 599q0 32 23.5 55.5q23.5 23.5 55.5 23.5q32 0 55.5 -23.5q23.5 -23.5 23.5 -55.5q0 -32 -23.5 -55.5q-23.5 -23.5 -55.5 -23.5q-32 0 -55.5 23.5t-23.5 55.5z" />
<glyph unicode="&#256;" horiz-adv-x="677" d="M465 126h-252l-51 -126h-160l269 667h141l263 -667h-160zM423 244l-82 224l-83 -224zM146 845h388v-92l-388 0z" />
<glyph unicode="&#257;" horiz-adv-x="598" d="M398 446h144v-446h-144v54q-15 -23 -32 -36.5q-17 -13.5 -34.5 -20.5q-17.5 -7 -34.5 -9.5q-17 -2.5 -31 -2.5q-48 0 -89 14.5q-41 14.5 -78 53.5q-35 38 -50 80q-15 42 -15 87q0 57 19 103q19 46 50 77q29 29 68.5 45q39.5 16 86.5 16q14 0 32 -2.5q18 -2.5 37 -9q19 -6.5 37.5 -19.5q18.5 -13 33.5 -34zM294 337q-23 0 -44 -9q-21 -9 -35 -23q-11 -11 -22 -31q-11 -20 -11 -50q0 -30 10 -49.5q10 -19.5 20 -30.5q15 -16 37 -25.5q22 -9.5 48 -9.5q22 0 41.5 8.5q19.5 8.5 33.5 22.5q14 14 24.5 34.5q10.5 20.5 10.5 49.5q0 24 -8.5 45.5q-8.5 21.5 -24.5 36.5q-17 16 -38.5 23.5q-21.5 7.5 -41.5 7.5zt0 0zM109 633h380v-90l-380 0z" />
<glyph unicode="&#258;" horiz-adv-x="677" d="M465 126h-252l-51 -126h-160l269 667h141l263 -667h-160zM423 244l-82 224l-83 -224zM510 874q-1 -7 -3 -19q-2 -12 -7.5 -27q-5.5 -15 -14 -30.5q-8.5 -15.5 -21.5 -28.5q-27 -27 -62.5 -35.5q-35.5 -8.5 -63.5 -8.5q-28 0 -63.5 8.5q-35.5 8.5 -62.5 35.5q-13 13 -21.5 28.5q-8.5 15.5 -14 30.5q-5.5 15 -7.5 27q-2 12 -3 19l96 0q2 -12 7 -23q5 -11 12 -19q10 -11 25.5 -16q15.5 -5 31.5 -5q16 0 31.5 5q15.5 5 25.5 16q7 8 12 19q5 11 7 23z" />
<glyph unicode="&#259;" horiz-adv-x="598" d="M398 446h144v-446h-144v54q-15 -23 -32 -36.5q-17 -13.5 -34.5 -20.5q-17.5 -7 -34.5 -9.5q-17 -2.5 -31 -2.5q-48 0 -89 14.5q-41 14.5 -78 53.5q-35 38 -50 80q-15 42 -15 87q0 57 19 103q19 46 50 77q29 29 68.5 45q39.5 16 86.5 16q14 0 32 -2.5q18 -2.5 37 -9q19 -6.5 37.5 -19.5q18.5 -13 33.5 -34zM294 337q-23 0 -44 -9q-21 -9 -35 -23q-11 -11 -22 -31q-11 -20 -11 -50q0 -30 10 -49.5q10 -19.5 20 -30.5q15 -16 37 -25.5q22 -9.5 48 -9.5q22 0 41.5 8.5q19.5 8.5 33.5 22.5q14 14 24.5 34.5q10.5 20.5 10.5 49.5q0 24 -8.5 45.5q-8.5 21.5 -24.5 36.5q-17 16 -38.5 23.5q-21.5 7.5 -41.5 7.5zt0 0zM468 664q-2 -31 -14 -57q-12 -26 -30 -45q-28 -29 -62 -37q-34 -8 -63 -8q-29 0 -63 8q-34 8 -62 37q-18 19 -30 45q-12 26 -14 57l94 0q2 -14 8 -24.5q6 -10.5 13 -17.5q13 -12 28 -15.5q15 -3.5 26 -3.5q11 0 26 3.5q15 3.5 28 15.5q7 7 13 17.5q6 10.5 8 24.5z" />
<glyph unicode="&#260;" horiz-adv-x="677" d="M412 667l263 -667h-90q-18 -17 -31 -35q-5 -8 -11 -20q-6 -12 -6 -26q0 -14 11 -24q10 -9 28 -9q19 0 33.5 6.5q14.5 6.5 16.5 8.5l-18 -77q-18 -11 -34.5 -14q-16.5 -3 -30.5 -3q-24 0 -41 7q-17 7 -28 17q-23 21 -23 56q0 20 6 34.5q6 14.5 14 28.5q10 16 21 28q11 12 23 22l-50 126h-252l-51 -126h-160l269 667zM423 244l-82 224l-83 -224z" />
<glyph unicode="&#261;" horiz-adv-x="598" d="M398 446h144v-446h-40q-6 -6 -14 -14.5q-8 -8.5 -13 -13.5q-19 -22 -19 -44q0 -18 12 -28q11 -10 29 -10q11 0 24.5 4q13.5 4 25.5 11l-18 -77q-18 -11 -35 -14q-17 -3 -31 -3q-16 0 -34 4q-18 4 -34 20q-11 11 -17 26q-6 15 -6 30q0 14 5 29q5 15 16 32q8 11 20 24q12 13 23 24l-38 0v58q-15 -25 -33.5 -39.5q-18.5 -14.5 -37.5 -22q-19 -7.5 -37 -9.5q-18 -2 -31 -2q-51 0 -89.5 16.5q-38.5 16.5 -70.5 51.5q-35 38 -50 80q-15 42 -15 87q0 57 19 103q19 46 50 77q29 29 68.5 45q39.5 16 86.5 16q14 0 32 -2.5q18 -2.5 37 -9q19 -6.5 37.5 -19.5q18.5 -13 33.5 -34zM294 337q-23 0 -44 -9q-21 -9 -35 -23q-11 -11 -22 -31q-11 -20 -11 -50q0 -30 10 -49.5q10 -19.5 20 -30.5q15 -16 37 -25.5q22 -9.5 48 -9.5q22 0 41.5 8.5q19.5 8.5 33.5 22.5q14 14 24.5 34.5q10.5 20.5 10.5 49.5q0 24 -8.5 45.5q-8.5 21.5 -24.5 36.5q-17 16 -38.5 23.5t-41.5 7.5z" />
<glyph unicode="&#262;" horiz-adv-x="605" d="M555 21q-45 -23 -81 -29.5q-36 -6.5 -66 -6.5q-92 0 -156 28q-64 28 -106 69q-45 44 -74.5 108q-29.5 64 -29.5 145q0 79 29.5 143q29.5 64 74.5 108q45 43 108 69.5q63 26.5 141 26.5q33 0 72 -8q39 -8 88 -29l0 -178q-26 27 -64 49q-38 22 -92 22q-82 0 -136 -52q-28 -27 -45.5 -66.5q-17.5 -39.5 -17.5 -87.5q0 -52 17.5 -88.5q17.5 -36.5 40.5 -58.5q5 -5 16.5 -14.5q11.5 -9.5 29.5 -18.5q18 -9 42.5 -16q24.5 -7 55.5 -7q15 0 32.5 2.5q17.5 2.5 37 10q19.5 7.5 40.5 21q21 13.5 43 35.5zM550 853l-164 -129l-65 53l134 148z" />
<glyph unicode="&#263;" horiz-adv-x="431" d="M391 305q-26 22 -51.5 28q-25.5 6 -42.5 6q-34 0 -54 -12q-20 -12 -28 -20q-14 -14 -23.5 -35.5q-9.5 -21.5 -9.5 -48.5q0 -25 8 -45.5q8 -20.5 22 -34.5q17 -18 40 -27q23 -9 47 -9q19 0 43 7q24 7 49 28l0 -130q-29 -16 -56.5 -21.5q-27.5 -5.5 -57.5 -5.5q-57 0 -99.5 18.5q-42.5 18.5 -73.5 48.5q-26 25 -48 67q-22 42 -22 103q0 57 21 101.5q21 44.5 53 74.5q38 35 81 49q43 14 89 14q29 0 56.5 -5.5q27.5 -5.5 56.5 -19.5zM426 650l-152 -135l-65 48l123 152z" />
<glyph unicode="&#264;" horiz-adv-x="605" d="M555 21q-45 -23 -81 -29.5q-36 -6.5 -66 -6.5q-92 0 -156 28q-64 28 -106 69q-45 44 -74.5 108q-29.5 64 -29.5 145q0 79 29.5 143q29.5 64 74.5 108q45 43 108 69.5q63 26.5 141 26.5q33 0 72 -8q39 -8 88 -29l0 -178q-26 27 -64 49q-38 22 -92 22q-82 0 -136 -52q-28 -27 -45.5 -66.5q-17.5 -39.5 -17.5 -87.5q0 -52 17.5 -88.5q17.5 -36.5 40.5 -58.5q5 -5 16.5 -14.5q11.5 -9.5 29.5 -18.5q18 -9 42.5 -16q24.5 -7 55.5 -7q15 0 32.5 2.5q17.5 2.5 37 10q19.5 7.5 40.5 21q21 13.5 43 35.5zM186 797l188 140l189 -140l-66 -71l-123 93l-124 -93z" />
<glyph unicode="&#265;" horiz-adv-x="431" d="M391 305q-26 22 -51.5 28q-25.5 6 -42.5 6q-34 0 -54 -12q-20 -12 -28 -20q-14 -14 -23.5 -35.5q-9.5 -21.5 -9.5 -48.5q0 -25 8 -45.5q8 -20.5 22 -34.5q17 -18 40 -27q23 -9 47 -9q19 0 43 7q24 7 49 28l0 -130q-29 -16 -56.5 -21.5q-27.5 -5.5 -57.5 -5.5q-57 0 -99.5 18.5q-42.5 18.5 -73.5 48.5q-26 25 -48 67q-22 42 -22 103q0 57 21 101.5q21 44.5 53 74.5q38 35 81 49q43 14 89 14q29 0 56.5 -5.5q27.5 -5.5 56.5 -19.5zM143 515l-64 69l183 142l184 -142l-66 -69l-118 95z" />
<glyph unicode="&#266;" horiz-adv-x="605" d="M555 21q-45 -23 -81 -29.5q-36 -6.5 -66 -6.5q-92 0 -156 28q-64 28 -106 69q-45 44 -74.5 108q-29.5 64 -29.5 145q0 79 29.5 143q29.5 64 74.5 108q45 43 108 69.5q63 26.5 141 26.5q33 0 72 -8q39 -8 88 -29l0 -178q-26 27 -64 49q-38 22 -92 22q-82 0 -136 -52q-28 -27 -45.5 -66.5q-17.5 -39.5 -17.5 -87.5q0 -52 17.5 -88.5q17.5 -36.5 40.5 -58.5q5 -5 16.5 -14.5q11.5 -9.5 29.5 -18.5q18 -9 42.5 -16q24.5 -7 55.5 -7q15 0 32.5 2.5q17.5 2.5 37 10q19.5 7.5 40.5 21q21 13.5 43 35.5zM294 815q0 36 24.5 60.5q24.5 24.5 60.5 24.5q36 0 60.5 -24.5q24.5 -24.5 24.5 -60.5q0 -36 -24.5 -60.5q-24.5 -24.5 -60.5 -24.5q-36 0 -60.5 24.5t-24.5 60.5z" />
<glyph unicode="&#267;" horiz-adv-x="431" d="M391 305q-26 22 -51.5 28q-25.5 6 -42.5 6q-34 0 -54 -12q-20 -12 -28 -20q-14 -14 -23.5 -35.5q-9.5 -21.5 -9.5 -48.5q0 -25 8 -45.5q8 -20.5 22 -34.5q17 -18 40 -27q23 -9 47 -9q19 0 43 7q24 7 49 28l0 -130q-29 -16 -56.5 -21.5q-27.5 -5.5 -57.5 -5.5q-57 0 -99.5 18.5q-42.5 18.5 -73.5 48.5q-26 25 -48 67q-22 42 -22 103q0 57 21 101.5q21 44.5 53 74.5q38 35 81 49q43 14 89 14q29 0 56.5 -5.5q27.5 -5.5 56.5 -19.5zM187 603q0 35 24 59q24 24 59 24q35 0 59 -24q24 -24 24 -59q0 -35 -24 -59q-24 -24 -59 -24q-35 0 -59 24t-24 59z" />
<glyph unicode="&#268;" horiz-adv-x="605" d="M555 21q-45 -23 -81 -29.5q-36 -6.5 -66 -6.5q-92 0 -156 28q-64 28 -106 69q-45 44 -74.5 108q-29.5 64 -29.5 145q0 79 29.5 143q29.5 64 74.5 108q45 43 108 69.5q63 26.5 141 26.5q33 0 72 -8q39 -8 88 -29l0 -178q-26 27 -64 49q-38 22 -92 22q-82 0 -136 -52q-28 -27 -45.5 -66.5q-17.5 -39.5 -17.5 -87.5q0 -52 17.5 -88.5q17.5 -36.5 40.5 -58.5q5 -5 16.5 -14.5q11.5 -9.5 29.5 -18.5q18 -9 42.5 -16q24.5 -7 55.5 -7q15 0 32.5 2.5q17.5 2.5 37 10q19.5 7.5 40.5 21q21 13.5 43 35.5zM502 937l66 -70l-189 -141l-188 141l64 70l124 -93z" />
<glyph unicode="&#269;" horiz-adv-x="431" d="M391 305q-26 22 -51.5 28q-25.5 6 -42.5 6q-34 0 -54 -12q-20 -12 -28 -20q-14 -14 -23.5 -35.5q-9.5 -21.5 -9.5 -48.5q0 -25 8 -45.5q8 -20.5 22 -34.5q17 -18 40 -27q23 -9 47 -9q19 0 43 7q24 7 49 28l0 -130q-29 -16 -56.5 -21.5q-27.5 -5.5 -57.5 -5.5q-57 0 -99.5 18.5q-42.5 18.5 -73.5 48.5q-26 25 -48 67q-22 42 -22 103q0 57 21 101.5q21 44.5 53 74.5q38 35 81 49q43 14 89 14q29 0 56.5 -5.5q27.5 -5.5 56.5 -19.5zM382 726l66 -68l-184 -143l-183 143l64 68l119 -95z" />
<glyph unicode="&#270;" horiz-adv-x="685" d="M284 667q33 0 66.5 -3.5q33.5 -3.5 67 -13q33.5 -9.5 66 -27.5q32.5 -18 63.5 -48q45 -43 70.5 -102q25.5 -59 25.5 -137q0 -79 -24.5 -136.5q-24.5 -57.5 -66.5 -99.5q-35 -35 -72.5 -55q-37.5 -20 -72.5 -30q-35 -10 -66 -12.5q-31 -2.5 -52 -2.5h-216v667zM227 130h41q12 0 30 1q18 1 39 5.5q21 4.5 42.5 13.5q21.5 9 40.5 25q27 23 46 64q19 41 19 97q0 54 -17.5 89q-17.5 35 -37.5 55q-19 19 -40 30q-21 11 -42 17q-21 6 -41.5 8q-20.5 2 -38.5 2h-41zM426 937l66 -70l-189 -141l-188 141l64 70l124 -93z" />
<glyph unicode="&#271;" horiz-adv-x="781" d="M542 0h-144v54q-8 -12 -20 -24.5q-12 -12.5 -29 -22q-17 -9.5 -39.5 -16q-22.5 -6.5 -52.5 -6.5q-50 0 -87 15.5q-37 15.5 -66 45.5q-35 35 -52.5 81q-17.5 46 -17.5 98q0 56 19 100.5q19 44.5 51 75.5q29 28 69 44q40 16 86 16q37 0 74.5 -14q37.5 -14 64.5 -51l0 333h144zM294 337q-22 0 -41 -6.5q-19 -6.5 -36 -23.5q-16 -15 -25.5 -36.5q-9.5 -21.5 -9.5 -48.5q0 -25 9.5 -46q9.5 -21 25.5 -36q17 -16 36.5 -23.5q19.5 -7.5 38.5 -7.5q20 0 42.5 8q22.5 8 39.5 25q13 12 23 32q10 20 10 48q0 29 -9.5 48.5q-9.5 19.5 -22.5 33.5q-17 18 -37.5 25.5q-20.5 7.5 -43.5 7.5zt0 0zM660 700l130 -30l-112 -198l-88 20z" />
<glyph unicode="&#272;" horiz-adv-x="712" d="M100 667h211q33 0 66.5 -3.5q33.5 -3.5 67 -13q33.5 -9.5 66 -27.5q32.5 -18 63.5 -48q45 -43 70.5 -102q25.5 -59 25.5 -137q0 -79 -24.5 -136.5q-24.5 -57.5 -66.5 -99.5q-35 -35 -72.5 -55q-37.5 -20 -72.5 -30q-35 -10 -66 -12.5q-31 -2.5 -52 -2.5h-216v303h-90v110h90zM254 413h120v-110h-120v-173h41q12 0 30 1q18 1 39 5.5q21 4.5 42.5 13.5q21.5 9 40.5 25q27 23 46 64q19 41 19 97q0 54 -17.5 89q-17.5 35 -37.5 55q-19 19 -40 30q-21 11 -42 17q-21 6 -41.5 8q-20.5 2 -38.5 2l-41 0z" />
<glyph unicode="&#273;" horiz-adv-x="612" d="M542 636h80v-94h-80v-542h-144v54q-8 -12 -20 -24.5q-12 -12.5 -29 -22q-17 -9.5 -39.5 -16q-22.5 -6.5 -52.5 -6.5q-50 0 -87 15.5q-37 15.5 -66 45.5q-35 35 -52.5 81q-17.5 46 -17.5 98q0 56 19 100.5q19 44.5 51 75.5q29 28 69 44q40 16 86 16q37 0 74.5 -14q37.5 -14 64.5 -51l0 146h-192v94h192v93h144zM294 337q-22 0 -41 -6.5q-19 -6.5 -36 -23.5q-16 -15 -25.5 -36.5q-9.5 -21.5 -9.5 -48.5q0 -25 9.5 -46q9.5 -21 25.5 -36q17 -16 36.5 -23.5q19.5 -7.5 38.5 -7.5q20 0 42.5 8q22.5 8 39.5 25q13 12 23 32q10 20 10 48q0 29 -9.5 48.5q-9.5 19.5 -22.5 33.5q-17 18 -37.5 25.5t-43.5 7.5z" />
<glyph unicode="&#274;" horiz-adv-x="502" d="M450 537h-223v-129h212v-130h-212v-148h223v-130h-377v667h377zM61 845h388v-92l-388 0z" />
<glyph unicode="&#275;" horiz-adv-x="547" d="M380 284q-1 3 -7 20q-6 17 -22 32q-12 11 -29 18q-17 7 -39 7q-28 0 -45 -9q-17 -9 -28 -20q-8 -9 -15 -21q-7 -12 -10 -27zM513 198h-333q0 -18 6.5 -39.5q6.5 -21.5 20.5 -36.5q17 -18 37 -23q20 -5 37 -5q16 0 31.5 3q15.5 3 26.5 10q2 1 12 9.5q10 8.5 19 27.5l136 -14q-8 -24 -18.5 -42q-10.5 -18 -22.5 -31.5q-12 -13.5 -23.5 -23q-11.5 -9.5 -21.5 -15.5q-32 -20 -67.5 -26.5q-35.5 -6.5 -73.5 -6.5q-51 0 -95 12.5q-44 12.5 -83 51.5q-29 29 -48 72.5q-19 43.5 -19 99.5q0 48 17 94.5q17 46.5 51 81.5q20 20 42.5 32.5q22.5 12.5 44.5 19.5q22 7 43.5 9.5q21.5 2.5 40.5 2.5q19 0 41 -2.5q22 -2.5 45.5 -9.5q23.5 -7 46.5 -20q23 -13 44 -35q20 -21 32.5 -44q12.5 -23 19 -46.5q6.5 -23.5 9 -46.5q2.5 -23 2.5 -44zM83 633h380v-90l-380 0z" />
<glyph unicode="&#278;" horiz-adv-x="502" d="M450 537h-223v-129h212v-130h-212v-148h223v-130h-377v667h377zM170 815q0 36 24.5 60.5q24.5 24.5 60.5 24.5q36 0 60.5 -24.5q24.5 -24.5 24.5 -60.5q0 -36 -24.5 -60.5q-24.5 -24.5 -60.5 -24.5q-36 0 -60.5 24.5t-24.5 60.5z" />
<glyph unicode="&#279;" horiz-adv-x="547" d="M380 284q-1 3 -7 20q-6 17 -22 32q-12 11 -29 18q-17 7 -39 7q-28 0 -45 -9q-17 -9 -28 -20q-8 -9 -15 -21q-7 -12 -10 -27zM513 198h-333q0 -18 6.5 -39.5q6.5 -21.5 20.5 -36.5q17 -18 37 -23q20 -5 37 -5q16 0 31.5 3q15.5 3 26.5 10q2 1 12 9.5q10 8.5 19 27.5l136 -14q-8 -24 -18.5 -42q-10.5 -18 -22.5 -31.5q-12 -13.5 -23.5 -23q-11.5 -9.5 -21.5 -15.5q-32 -20 -67.5 -26.5q-35.5 -6.5 -73.5 -6.5q-51 0 -95 12.5q-44 12.5 -83 51.5q-29 29 -48 72.5q-19 43.5 -19 99.5q0 48 17 94.5q17 46.5 51 81.5q20 20 42.5 32.5q22.5 12.5 44.5 19.5q22 7 43.5 9.5q21.5 2.5 40.5 2.5q19 0 41 -2.5q22 -2.5 45.5 -9.5q23.5 -7 46.5 -20q23 -13 44 -35q20 -21 32.5 -44q12.5 -23 19 -46.5q6.5 -23.5 9 -46.5q2.5 -23 2.5 -44zM183 603q0 35 24 59q24 24 59 24q35 0 59 -24q24 -24 24 -59q0 -35 -24 -59q-24 -24 -59 -24q-35 0 -59 24t-24 59z" />
<glyph unicode="&#280;" horiz-adv-x="502" d="M450 537h-223v-129h212v-130h-212v-148h223v-130h-40q-18 -17 -31 -35q-5 -8 -11 -20q-6 -12 -6 -26q0 -14 11 -24q10 -9 28 -9q19 0 33.5 6.5q14.5 6.5 16.5 8.5l-18 -77q-18 -11 -34.5 -14q-16.5 -3 -30.5 -3q-24 0 -41 7q-17 7 -28 17q-23 21 -23 56q0 20 6 34.5q6 14.5 14 28.5q10 16 21 28q11 12 23 22l-267 0v667l377 0z" />
<glyph unicode="&#281;" horiz-adv-x="547" d="M380 284q-1 3 -7 20q-6 17 -22 32q-12 11 -29 18q-17 7 -39 7q-28 0 -45 -9q-17 -9 -28 -20q-8 -9 -15 -21q-7 -12 -10 -27zM513 198h-333q1 -21 8.5 -42q7.5 -21 18.5 -34q10 -11 27.5 -19.5q17.5 -8.5 48.5 -8.5q26 0 39.5 5.5q13.5 5.5 16.5 7.5q2 1 12 9.5q10 8.5 19 27.5l136 -14q-10 -43 -43 -76q-17 -17 -32 -26.5q-15 -9.5 -30 -17.5q-23 -13 -37 -22q-14 -9 -22 -18q-18 -20 -18 -42q0 -18 12 -28q11 -10 29 -10q11 0 24.5 4q13.5 4 25.5 11l-18 -77q-18 -11 -35 -14q-17 -3 -31 -3q-16 0 -34 4q-18 4 -34 20q-12 11 -17.5 26q-5.5 15 -5.5 30q0 16 4.5 29.5q4.5 13.5 12.5 25.5q13 22 33 39q-60 0 -105.5 13q-45.5 13 -83.5 51q-29 30 -48 73q-19 43 -19 96q0 51 17 98q17 47 51 81q20 20 42.5 32.5q22.5 12.5 45 19.5q22.5 7 44 9.5q21.5 2.5 41.5 2.5q47 0 92.5 -14.5q45.5 -14.5 82.5 -52.5q20 -21 32.5 -44q12.5 -23 19 -46.5q6.5 -23.5 9 -46.5q2.5 -23 2.5 -44z" />
<glyph unicode="&#282;" horiz-adv-x="502" d="M450 537h-223v-129h212v-130h-212v-148h223v-130h-377v667h377zM377 937l66 -70l-189 -141l-188 141l64 70l124 -93z" />
<glyph unicode="&#283;" horiz-adv-x="547" d="M380 284q-1 3 -7 20q-6 17 -22 32q-12 11 -29 18q-17 7 -39 7q-28 0 -45 -9q-17 -9 -28 -20q-8 -9 -15 -21q-7 -12 -10 -27zM513 198h-333q0 -18 6.5 -39.5q6.5 -21.5 20.5 -36.5q17 -18 37 -23q20 -5 37 -5q16 0 31.5 3q15.5 3 26.5 10q2 1 12 9.5q10 8.5 19 27.5l136 -14q-8 -24 -18.5 -42q-10.5 -18 -22.5 -31.5q-12 -13.5 -23.5 -23q-11.5 -9.5 -21.5 -15.5q-32 -20 -67.5 -26.5q-35.5 -6.5 -73.5 -6.5q-51 0 -95 12.5q-44 12.5 -83 51.5q-29 29 -48 72.5q-19 43.5 -19 99.5q0 48 17 94.5q17 46.5 51 81.5q20 20 42.5 32.5q22.5 12.5 44.5 19.5q22 7 43.5 9.5q21.5 2.5 40.5 2.5q19 0 41 -2.5q22 -2.5 45.5 -9.5q23.5 -7 46.5 -20q23 -13 44 -35q20 -21 32.5 -44q12.5 -23 19 -46.5q6.5 -23.5 9 -46.5q2.5 -23 2.5 -44zM391 726l66 -68l-184 -143l-183 143l64 68l119 -95z" />
<glyph unicode="&#284;" horiz-adv-x="767" d="M394 364h331v-7q0 -30 -5.5 -67q-5.5 -37 -18 -75q-12.5 -38 -32 -74q-19.5 -36 -47.5 -65q-28 -29 -57.5 -47q-29.5 -18 -59.5 -27.5q-30 -9.5 -60.5 -13q-30.5 -3.5 -60.5 -3.5q-30 0 -61 3.5q-31 3.5 -62 13q-31 9.5 -61.5 28q-30.5 18.5 -59.5 48.5q-15 15 -32 38q-17 23 -31.5 54.5q-14.5 31.5 -24.5 71.5q-10 40 -10 90q0 82 27 146q27 64 69 107q31 32 64.5 51q33.5 19 67.5 29.5q34 10.5 67 13.5q33 3 63 3q42 0 91 -9.5q49 -9.5 96 -40.5q34 -23 62 -55q28 -32 46 -64l-139 -75q-10 20 -24.5 39q-14.5 19 -34.5 33q-44 32 -102 32q-46 0 -80 -14q-34 -14 -58 -40q-28 -29 -42.5 -70q-14.5 -41 -14.5 -88q0 -57 17.5 -94.5q17.5 -37.5 38.5 -58.5q29 -30 63 -41q34 -11 72 -11q50 0 77.5 13q27.5 13 38.5 23q4 3 21 22.5q17 19.5 27 56.5l-161 0zM195 797l188 140l189 -140l-66 -71l-123 93l-124 -93z" />
<glyph unicode="&#285;" horiz-adv-x="595" d="M395 446h144v-419q0 -24 -1.5 -48.5q-1.5 -24.5 -6.5 -49q-5 -24.5 -16.5 -48q-11.5 -23.5 -30.5 -44.5q-21 -22 -46 -35q-25 -13 -50.5 -20q-25.5 -7 -49.5 -9q-24 -2 -42 -2q-45 0 -94.5 10.5q-49.5 10.5 -91.5 46.5q-21 18 -40 47q-19 29 -27 71l157 0q5 -17 14 -27.5q9 -10.5 18 -16.5q13 -8 29.5 -11.5q16.5 -3.5 32.5 -3.5q31 0 47.5 8.5q16.5 8.5 24.5 15.5q10 10 16 23q6 13 9 26.5q3 13.5 3.5 25q0.5 11.5 0.5 18.5v51q-6 -11 -16 -22.5q-10 -11.5 -26 -21.5q-16 -10 -38 -16.5q-22 -6.5 -53 -6.5q-52 0 -92 16q-40 16 -71 47q-27 28 -46 69q-19 41 -19 99q0 57 18.5 103q18.5 46 47.5 75q20 21 60 42.5q40 21.5 102 21.5q30 0 52.5 -7q22.5 -7 38.5 -17.5q16 -10.5 26 -22q10 -11.5 16 -20.5zM295 336q-24 0 -44.5 -8q-20.5 -8 -34.5 -21q-17 -16 -25.5 -39.5q-8.5 -23.5 -8.5 -43.5q0 -22 8 -43q8 -21 23 -37q30 -32 81 -32q29 0 48 9q19 9 30 20q35 33 35 85q0 26 -10 47q-10 21 -24 35q-16 14 -37 21q-21 7 -41 7zt0 0zM178 515l-64 69l183 142l184 -142l-66 -69l-118 95z" />
<glyph unicode="&#286;" horiz-adv-x="767" d="M394 364h331v-7q0 -30 -5.5 -67q-5.5 -37 -18 -75q-12.5 -38 -32 -74q-19.5 -36 -47.5 -65q-28 -29 -57.5 -47q-29.5 -18 -59.5 -27.5q-30 -9.5 -60.5 -13q-30.5 -3.5 -60.5 -3.5q-30 0 -61 3.5q-31 3.5 -62 13q-31 9.5 -61.5 28q-30.5 18.5 -59.5 48.5q-15 15 -32 38q-17 23 -31.5 54.5q-14.5 31.5 -24.5 71.5q-10 40 -10 90q0 82 27 146q27 64 69 107q31 32 64.5 51q33.5 19 67.5 29.5q34 10.5 67 13.5q33 3 63 3q42 0 91 -9.5q49 -9.5 96 -40.5q34 -23 62 -55q28 -32 46 -64l-139 -75q-10 20 -24.5 39q-14.5 19 -34.5 33q-44 32 -102 32q-46 0 -80 -14q-34 -14 -58 -40q-28 -29 -42.5 -70q-14.5 -41 -14.5 -88q0 -57 17.5 -94.5q17.5 -37.5 38.5 -58.5q29 -30 63 -41q34 -11 72 -11q50 0 77.5 13q27.5 13 38.5 23q4 3 21 22.5q17 19.5 27 56.5l-161 0zM555 874q-1 -7 -3 -19q-2 -12 -7.5 -27q-5.5 -15 -14 -30.5q-8.5 -15.5 -21.5 -28.5q-27 -27 -62.5 -35.5q-35.5 -8.5 -63.5 -8.5q-28 0 -63.5 8.5q-35.5 8.5 -62.5 35.5q-13 13 -21.5 28.5q-8.5 15.5 -14 30.5q-5.5 15 -7.5 27q-2 12 -3 19l96 0q2 -12 7 -23q5 -11 12 -19q10 -11 25.5 -16q15.5 -5 31.5 -5q16 0 31.5 5q15.5 5 25.5 16q7 8 12 19q5 11 7 23z" />
<glyph unicode="&#287;" horiz-adv-x="595" d="M395 446h144v-419q0 -24 -1.5 -48.5q-1.5 -24.5 -6.5 -49q-5 -24.5 -16.5 -48q-11.5 -23.5 -30.5 -44.5q-21 -22 -46 -35q-25 -13 -50.5 -20q-25.5 -7 -49.5 -9q-24 -2 -42 -2q-45 0 -94.5 10.5q-49.5 10.5 -91.5 46.5q-21 18 -40 47q-19 29 -27 71l157 0q5 -17 14 -27.5q9 -10.5 18 -16.5q13 -8 29.5 -11.5q16.5 -3.5 32.5 -3.5q31 0 47.5 8.5q16.5 8.5 24.5 15.5q10 10 16 23q6 13 9 26.5q3 13.5 3.5 25q0.5 11.5 0.5 18.5v51q-6 -11 -16 -22.5q-10 -11.5 -26 -21.5q-16 -10 -38 -16.5q-22 -6.5 -53 -6.5q-52 0 -92 16q-40 16 -71 47q-27 28 -46 69q-19 41 -19 99q0 57 18.5 103q18.5 46 47.5 75q20 21 60 42.5q40 21.5 102 21.5q30 0 52.5 -7q22.5 -7 38.5 -17.5q16 -10.5 26 -22q10 -11.5 16 -20.5zM295 336q-24 0 -44.5 -8q-20.5 -8 -34.5 -21q-17 -16 -25.5 -39.5q-8.5 -23.5 -8.5 -43.5q0 -22 8 -43q8 -21 23 -37q30 -32 81 -32q29 0 48 9q19 9 30 20q35 33 35 85q0 26 -10 47q-10 21 -24 35q-16 14 -37 21q-21 7 -41 7zt0 0zM466 664q-2 -31 -14 -57q-12 -26 -30 -45q-28 -29 -62 -37q-34 -8 -63 -8q-29 0 -63 8q-34 8 -62 37q-18 19 -30 45q-12 26 -14 57l94 0q2 -14 8 -24.5q6 -10.5 13 -17.5q13 -12 28 -15.5q15 -3.5 26 -3.5q11 0 26 3.5q15 3.5 28 15.5q7 7 13 17.5q6 10.5 8 24.5z" />
</font>
</defs>
</svg>
